<?xml version="1.0" standalone="no"?>
<!DOCTYPE svg PUBLIC "-//W3C//DTD SVG 1.1//EN" "http://www.w3.org/Graphics/SVG/1.1/DTD/svg11.dtd" >
<svg xmlns="http://www.w3.org/2000/svg" xmlns:xlink="http://www.w3.org/1999/xlink" version="1.1">
<metadata>
Created by FontForge 20170812 at Wed Nov  9 13:50:35 2022
 By www-data
</metadata>
<defs>
<font id="SimpleStoryRegular" horiz-adv-x="313" >
  <font-face 
    font-family="Simple Story"
    font-weight="400"
    font-stretch="normal"
    units-per-em="1000"
    panose-1="0 0 0 0 0 0 0 0 0 0"
    ascent="800"
    descent="-200"
    x-height="694.005"
    cap-height="699.008"
    bbox="-65.0021 -340.617 720.13 976.43"
    underline-thickness="50"
    underline-position="-100"
    unicode-range="U+000A-20AC"
  />
<missing-glyph horiz-adv-x="527" 
d="M50 700h427v-700h-427v700zM78 680l185 -309l186 309h-371zM251 350l-180 300v-601zM264 329l-185 -308h370zM276 350l181 -303v605z" />
    <glyph glyph-name=".notdef" horiz-adv-x="527" 
d="M50 700h427v-700h-427v700zM78 680l185 -309l186 309h-371zM251 350l-180 300v-601zM264 329l-185 -308h370zM276 350l181 -303v605z" />
    <glyph glyph-name=".null" horiz-adv-x="0" 
 />
    <glyph glyph-name=".null" horiz-adv-x="0" 
 />
    <glyph glyph-name="LF" unicode="&#xa;" horiz-adv-x="0" 
 />
    <glyph glyph-name="controlCR" unicode="&#xd;" horiz-adv-x="0" 
 />
    <glyph glyph-name="space" unicode=" " horiz-adv-x="188" 
 />
    <glyph glyph-name="exclam" unicode="!" horiz-adv-x="139" 
d="M68.3447 196.294c-21.0205 0.355469 -37.7744 17.6836 -37.4238 38.6992c3.08301 183.771 0.765625 369.853 -6.88965 553.074c-0.875 21.0078 15.4424 38.7461 36.4453 39.6211c21.0879 0.723633 38.7461 -15.4414 39.6211 -36.4404
c7.71875 -184.702 10.0537 -372.28 6.94531 -557.532c-0.350586 -20.7998 -17.3232 -37.4258 -38.0469 -37.4258c-0.21582 0 -0.435547 0 -0.651367 0.00390625zM109.889 41.7939c1.3916 -31.5596 1.21484 -63.5635 -0.532227 -95.1152
c-1.125 -20.2754 -17.916 -35.9619 -37.9756 -35.9619c-0.710938 0 -1.42188 0.0166016 -2.13672 0.0585938c-20.9902 1.15918 -37.0615 19.1172 -35.9023 40.1074c1.60742 29.0479 1.77637 58.5098 0.495117 87.5576c-0.925781 21.0029 15.3486 38.7793 36.3516 39.7051
c20.9775 0.994141 38.7744 -15.3486 39.7002 -36.3516z" />
    <glyph glyph-name="quotedbl" unicode="&#x22;" horiz-adv-x="209" 
d="M66.7988 875.472c20.9102 -2.18652 36.0908 -20.9043 33.9043 -41.8145c-5.8877 -56.3359 -8.3623 -114.287 -7.35156 -172.238c0.368164 -21.0205 -16.376 -38.3564 -37.3965 -38.7246c-0.228516 -0.00390625 -0.453125 -0.00390625 -0.677734 -0.00390625
c-20.7158 0 -37.6885 16.6084 -38.0479 37.4004c-1.06152 61.0303 1.54395 122.09 7.75293 181.479c2.18652 20.9141 20.8809 36.0977 41.8164 33.9023zM165.133 875.474c20.9102 -2.18652 36.0908 -20.9043 33.9043 -41.8145
c-5.8877 -56.3359 -8.3623 -114.287 -7.35156 -172.238c0.368164 -21.0205 -16.376 -38.3564 -37.3965 -38.7246c-0.228516 -0.00390625 -0.453125 -0.00390625 -0.677734 -0.00390625c-20.7158 0 -37.6885 16.6084 -38.0479 37.4004
c-1.06152 61.0303 1.54395 122.09 7.75293 181.479c2.18652 20.9141 20.8809 36.0977 41.8164 33.9023z" />
    <glyph glyph-name="quotedbl" unicode="&#x201d;" horiz-adv-x="209" 
d="M66.7988 875.472c20.9102 -2.18652 36.0908 -20.9043 33.9043 -41.8145c-5.8877 -56.3359 -8.3623 -114.287 -7.35156 -172.238c0.368164 -21.0205 -16.376 -38.3564 -37.3965 -38.7246c-0.228516 -0.00390625 -0.453125 -0.00390625 -0.677734 -0.00390625
c-20.7158 0 -37.6885 16.6084 -38.0479 37.4004c-1.06152 61.0303 1.54395 122.09 7.75293 181.479c2.18652 20.9141 20.8809 36.0977 41.8164 33.9023zM165.133 875.474c20.9102 -2.18652 36.0908 -20.9043 33.9043 -41.8145
c-5.8877 -56.3359 -8.3623 -114.287 -7.35156 -172.238c0.368164 -21.0205 -16.376 -38.3564 -37.3965 -38.7246c-0.228516 -0.00390625 -0.453125 -0.00390625 -0.677734 -0.00390625c-20.7158 0 -37.6885 16.6084 -38.0479 37.4004
c-1.06152 61.0303 1.54395 122.09 7.75293 181.479c2.18652 20.9141 20.8809 36.0977 41.8164 33.9023z" />
    <glyph glyph-name="quotedbl" unicode="&#x201c;" horiz-adv-x="209" 
d="M66.7988 875.472c20.9102 -2.18652 36.0908 -20.9043 33.9043 -41.8145c-5.8877 -56.3359 -8.3623 -114.287 -7.35156 -172.238c0.368164 -21.0205 -16.376 -38.3564 -37.3965 -38.7246c-0.228516 -0.00390625 -0.453125 -0.00390625 -0.677734 -0.00390625
c-20.7158 0 -37.6885 16.6084 -38.0479 37.4004c-1.06152 61.0303 1.54395 122.09 7.75293 181.479c2.18652 20.9141 20.8809 36.0977 41.8164 33.9023zM165.133 875.474c20.9102 -2.18652 36.0908 -20.9043 33.9043 -41.8145
c-5.8877 -56.3359 -8.3623 -114.287 -7.35156 -172.238c0.368164 -21.0205 -16.376 -38.3564 -37.3965 -38.7246c-0.228516 -0.00390625 -0.453125 -0.00390625 -0.677734 -0.00390625c-20.7158 0 -37.6885 16.6084 -38.0479 37.4004
c-1.06152 61.0303 1.54395 122.09 7.75293 181.479c2.18652 20.9141 20.8809 36.0977 41.8164 33.9023z" />
    <glyph glyph-name="numbersign" unicode="#" horiz-adv-x="486" 
d="M400.053 469.386c20.9902 -1.21387 37.0176 -19.2148 35.8164 -40.2051c-1.21387 -20.9902 -19.2227 -37.0361 -40.1963 -35.8096c-17.6406 1.02344 -35.0361 1.75977 -52.3467 2.37305c-1.16699 -16.7607 -2.34277 -33.5176 -3.45117 -50.2998
c15.7207 -0.59668 31.5137 -1.30273 47.501 -2.22461c20.9902 -1.21387 37.0195 -19.21 35.8057 -40.2002c-1.21387 -20.9863 -19.1758 -36.9229 -40.1963 -35.8066c-16.1475 0.930664 -32.0918 1.62891 -47.9609 2.2168
c-5.36328 -88.124 -9.92676 -176.366 -13.666 -264.389c-0.867188 -20.4531 -17.7217 -36.4482 -38.002 -36.4482c-0.545898 0 -1.0918 0.0126953 -1.6416 0.0341797c-21.0029 0.892578 -37.3076 18.6436 -36.415 39.6465c3.71387 87.4424 8.23926 175.105 13.5469 262.654
c-12.4053 0.0253906 -24.8232 -0.0595703 -37.2363 -0.25c-5.39258 -88.5381 -9.98535 -177.203 -13.7412 -265.636c-0.867188 -20.4531 -17.7256 -36.4482 -38.001 -36.4482c-0.545898 0 -1.0957 0.0126953 -1.64551 0.0341797
c-21.0029 0.892578 -37.3076 18.6436 -36.415 39.6465c3.6709 86.5166 8.14941 173.253 13.3857 259.884c-17.9453 -0.900391 -35.9961 -1.94531 -54.3477 -3.29004c-0.947266 -0.0673828 -1.88574 -0.101562 -2.82031 -0.101562
c-19.7598 0 -36.457 15.2637 -37.9248 35.2812c-1.53906 20.9697 14.2109 39.2109 35.1807 40.7461c21.8955 1.60254 43.4062 2.83789 64.7607 3.83203c1.08691 16.5029 2.21582 32.9893 3.35742 49.4756c-16.4775 -0.867188 -33.0439 -1.83984 -49.8682 -3.0752
c-0.947266 -0.0673828 -1.88574 -0.101562 -2.82031 -0.101562c-19.7598 0 -36.457 15.2637 -37.9248 35.2812c-1.53906 20.9697 14.2109 39.2109 35.1807 40.7461c20.5762 1.50977 40.8096 2.67285 60.9072 3.6416c6.00586 80.6592 12.6211 161.018 19.9248 240.767
c1.91602 20.9443 20.4404 36.3818 41.376 34.4404c20.9355 -1.91992 36.3555 -20.4443 34.4355 -41.376c-7.02051 -76.6621 -13.3896 -153.899 -19.2051 -231.416c12.3877 0.177734 24.7803 0.25 37.1602 0.220703c5.95508 79.7705 12.502 159.258 19.7256 238.136
c1.91602 20.9443 20.4619 36.3818 41.376 34.4404c20.9355 -1.91992 36.3555 -20.4443 34.4355 -41.376c-7.05859 -77.085 -13.4619 -154.749 -19.3027 -232.692c16.9561 -0.617188 33.9883 -1.35742 51.2529 -2.35156zM263.683 347.062
c1.09961 16.6934 2.25879 33.3613 3.41309 50.0332c-12.3877 0 -24.793 -0.105469 -37.1982 -0.321289c-1.15918 -16.6211 -2.33105 -33.2295 -3.43066 -49.8682c12.4053 0.15625 24.8105 0.210938 37.2158 0.15625z" />
    <glyph glyph-name="dollar" unicode="$" horiz-adv-x="346" 
d="M306.472 292.086c22.8975 -65.2676 22.9492 -139.525 0.131836 -193.797c-19.3584 -46.0537 -55.71 -78.5859 -97.5264 -89.5273c0.224609 -26.1123 0.461914 -52.3096 0.728516 -78.7139c0.211914 -21.0205 -16.6592 -38.2344 -37.6797 -38.4463h-0.388672
c-20.8467 0 -37.8486 16.791 -38.0557 37.6846c-0.283203 28.3115 -0.537109 56.3867 -0.774414 84.3682c-36.8545 14.7607 -69.0059 46.7812 -86.0635 88.335c-7.98047 19.4424 1.31543 41.6807 20.7617 49.666c19.4463 7.98926 41.6846 -1.30664 49.6699 -20.7617
c3.81445 -9.2959 8.94922 -17.7119 14.917 -24.9023c-0.693359 101.882 -1.08691 202.182 -1.17969 302.38c-0.740234 0.710938 -1.45508 1.4043 -2.19922 2.11914c-21.5576 20.7412 -43.8506 42.1885 -64.6719 67.751c-11.9355 14.6553 -26.9287 34.8926 -36.9521 61.5127
c-9.71484 25.7949 -12.6074 56.166 -8.14941 85.5137c12.46 82.0498 62.1768 125.059 112.908 141.634c0.203125 33.2266 0.427734 66.5879 0.694336 100.22c0.165039 20.9229 17.1758 37.7686 38.0566 37.7686h0.304688
c21.0244 -0.165039 37.9297 -17.3408 37.7646 -38.3613c-0.253906 -32.3467 -0.473633 -64.4355 -0.667969 -96.4014c49.6572 -16.9512 92.9453 -75.4941 98.4053 -140.547c1.75977 -20.9482 -13.7959 -39.3584 -34.7441 -41.1182
c-20.9316 -1.80176 -39.3545 13.7959 -41.1143 34.748c-1.94141 23.126 -11.957 42.6318 -23.0254 56.0811c-0.355469 -80.1475 -0.516602 -159.529 -0.495117 -238.848c3.45117 -3.45117 6.89355 -6.94043 10.3193 -10.4971
c27.4619 -28.5312 66.5713 -73.8701 89.0254 -137.86zM131.025 517.012c0.0722656 54.8936 0.230469 109.934 0.475586 165.347c-16.4824 -12.0791 -31.7803 -32.8535 -37.1982 -68.5195c-2.49512 -16.4355 -0.989258 -33.6533 4.12793 -47.251
c6.11133 -16.2236 15.9316 -29.457 24.7373 -40.2627c2.58008 -3.16797 5.20605 -6.25977 7.85742 -9.31348zM236.433 127.788c15.5645 37.0283 14.8594 91.625 -1.7959 139.1c-6.7334 19.1934 -15.624 37.2568 -27.3311 55.2148
c0.203125 -76.417 0.579102 -153.163 1.13281 -230.853c11.4697 8.18848 21.3789 20.792 27.9941 36.5381z" />
    <glyph glyph-name="percent" unicode="%" horiz-adv-x="512" 
d="M367.749 708c-21.3076 -94.2178 -38.8877 -179.541 -57.4971 -269.872c-28.0156 -136.013 -56.9824 -276.661 -99.8555 -450.811c-4.27148 -17.3574 -19.8232 -28.9756 -36.9307 -28.9756c-3.01172 0 -6.06934 0.359375 -9.12695 1.1123
c-20.415 5.02832 -32.8877 25.6504 -27.8633 46.0615c42.5225 172.732 71.3418 312.657 99.2139 447.973c18.6855 90.6992 36.3311 176.374 57.8037 271.307c4.63965 20.5088 25.0088 33.3828 45.5254 28.7305c20.5039 -4.63965 33.3701 -25.0215 28.7305 -45.5254z
M171.13 322.817c-14.2568 -18.4697 -33.1426 -28.2568 -52.7627 -28.2568c-8.75879 0 -17.666 1.9541 -26.374 5.95508c-21.4893 9.87988 -38.7959 30.8662 -51.4209 62.375c-10.8018 26.9541 -17.958 61.2676 -20.1572 96.6123
c-7.74414 124.636 15.6025 263.825 85.1504 274.919c18.4912 2.94824 36.9697 -2.24512 52.0176 -14.6455c47.6143 -39.2275 54.9736 -148.659 56.0947 -181.264c2.02539 -58.915 -3.99316 -117.069 -16.5117 -159.55
c-1.45117 -4.93164 -3.00293 -9.74023 -4.61426 -14.2871c-6.21289 -17.5352 -13.2207 -31.2256 -21.4219 -41.8584zM124.14 400.474c10.3066 34.9814 15.21 84.3359 13.459 135.427c-1.6748 48.6211 -11.3896 90.8604 -20.3984 111.952
c-11.9141 -26.9121 -26.7588 -87.6465 -20.7949 -183.624c1.67871 -27.0684 7.08789 -53.6797 14.8359 -73.0166c1.86914 -4.66895 3.71289 -8.46289 5.41309 -11.5078c1.26074 2.79102 2.65625 6.22559 4.13672 10.3955v0.00390625
c1.1543 3.25684 2.2832 6.75 3.34863 10.3701zM492.115 225.582c2.02148 -58.9111 -3.99805 -117.062 -16.5127 -159.547c-1.44629 -4.91895 -3.00293 -9.73633 -4.61426 -14.291v-0.00390625c-6.21289 -17.5391 -13.2207 -31.2295 -21.417 -41.8535
c-14.2529 -18.4736 -33.1455 -28.2559 -52.7568 -28.2559c-8.76367 0 -17.6709 1.9541 -26.3789 5.95508c-21.4941 9.88379 -38.7969 30.8701 -51.4219 62.375c-10.8057 26.958 -17.9619 61.2754 -20.1572 96.6162c-7.74414 124.632 15.6025 263.821 85.1465 274.915
c18.5039 2.95605 36.9697 -2.25 52.0176 -14.6465c47.6143 -39.2275 54.9736 -148.659 56.0947 -181.264zM402.569 87.5381c10.3115 34.9902 15.2129 84.3369 13.4619 135.428c-1.6748 48.6211 -11.3896 90.8604 -20.3984 111.952
c-11.9141 -26.916 -26.7588 -87.6543 -20.7949 -183.623c1.67871 -27.0635 7.08398 -53.6748 14.8369 -73.0156c1.86914 -4.66504 3.71289 -8.46289 5.41309 -11.5078c1.26074 2.7959 2.65625 6.22559 4.13672 10.4004c1.1543 3.25684 2.2832 6.75 3.34473 10.3662z" />
    <glyph glyph-name="ampersand" unicode="&#x26;" horiz-adv-x="320" 
d="M264.724 332.887c20.8125 -2.96094 35.2852 -22.2354 32.3164 -43.0479c-10.3828 -72.9404 -28.0156 -140.445 -51.5312 -197.796c8.85645 -12.6504 17.9795 -23.6895 27.3096 -32.9648c14.9082 -14.8242 14.9756 -38.9277 0.151367 -53.832
c-14.8281 -14.9004 -38.9268 -14.9727 -53.8311 -0.15332c-3.94141 3.9209 -7.79395 8.00195 -11.5537 12.2188c-26.8145 -41.4648 -55.7646 -63.7324 -87.8447 -67.7676c-3.16797 -0.401367 -6.32324 -0.595703 -9.44434 -0.595703
c-23.2617 0 -44.9414 10.9375 -60.5518 30.8789c-16.1182 20.584 -26.4463 52.5752 -27.6221 85.5732c-1.14648 32.1396 5.80664 65.6025 21.2568 102.306c12.3496 29.335 26.1836 54.7578 39.5615 79.3438c2.67285 4.91016 5.3457 9.82031 8.00586 14.7598
c-1.44238 5.3125 -2.82129 10.5312 -4.13281 15.6406c-19.1084 74.5049 -39.6504 188.179 -28.9961 306.69c4.71191 52.4277 17.793 121.955 53.3408 155.418c16.9434 15.9531 38.8389 22.5762 60.0664 18.1562c26.1338 -5.43066 48.1602 -26.1924 62.0244 -58.4668
c22.1875 -51.6533 21.3369 -122.647 18.8584 -160.369c-6.33984 -96.4854 -33.1035 -192.391 -79.585 -285.276c7.5498 -24.8008 15.751 -48.0283 24.4932 -69.4463c10.4717 36.0176 18.791 75.1602 24.6611 116.409c2.96094 20.8086 22.2344 35.3027 43.0469 32.3213z
M133.646 577.328c-6.32324 -70.3096 -0.430664 -139.256 9.32617 -197.773c18.4443 54.3262 29.5635 109.287 33.1797 164.32c3.4043 51.8184 -1.39648 98.667 -12.8457 125.32c-1.61133 3.74707 -3.21387 6.66992 -4.64746 8.88574
c-9.77832 -15.4883 -20.4785 -50.3047 -25.0127 -100.753zM111.046 25.2363c7.46875 1.84375 25.7871 16.4785 48.3467 61.1582c-13.4238 23.9854 -25.1348 49.4629 -35.3105 75.042c-3.6377 -7.54102 -7.15625 -15.2559 -10.5312 -23.2744
c-11.2168 -26.6455 -16.0938 -48.9092 -15.3408 -70.0518c0.685547 -19.21 6.43359 -34.9014 11.4873 -41.3516c0.553711 -0.710938 1.01074 -1.20117 1.34863 -1.52246z" />
    <glyph glyph-name="quotesingle" unicode="'" horiz-adv-x="110" 
d="M66.7988 875.472c20.9102 -2.18652 36.0908 -20.9043 33.9043 -41.8145c-5.8877 -56.3359 -8.3623 -114.287 -7.35156 -172.238c0.368164 -21.0205 -16.376 -38.3564 -37.3965 -38.7246c-0.228516 -0.00390625 -0.453125 -0.00390625 -0.677734 -0.00390625
c-20.7158 0 -37.6885 16.6084 -38.0479 37.4004c-1.06152 61.0303 1.54395 122.09 7.75293 181.479c2.18652 20.9141 20.8975 36.0977 41.8164 33.9023z" />
    <glyph glyph-name="quotesingle" unicode="&#x2019;" horiz-adv-x="110" 
d="M66.7988 875.472c20.9102 -2.18652 36.0908 -20.9043 33.9043 -41.8145c-5.8877 -56.3359 -8.3623 -114.287 -7.35156 -172.238c0.368164 -21.0205 -16.376 -38.3564 -37.3965 -38.7246c-0.228516 -0.00390625 -0.453125 -0.00390625 -0.677734 -0.00390625
c-20.7158 0 -37.6885 16.6084 -38.0479 37.4004c-1.06152 61.0303 1.54395 122.09 7.75293 181.479c2.18652 20.9141 20.8975 36.0977 41.8164 33.9023z" />
    <glyph glyph-name="quotesingle" unicode="&#x2018;" horiz-adv-x="110" 
d="M66.7988 875.472c20.9102 -2.18652 36.0908 -20.9043 33.9043 -41.8145c-5.8877 -56.3359 -8.3623 -114.287 -7.35156 -172.238c0.368164 -21.0205 -16.376 -38.3564 -37.3965 -38.7246c-0.228516 -0.00390625 -0.453125 -0.00390625 -0.677734 -0.00390625
c-20.7158 0 -37.6885 16.6084 -38.0479 37.4004c-1.06152 61.0303 1.54395 122.09 7.75293 181.479c2.18652 20.9141 20.8975 36.0977 41.8164 33.9023z" />
    <glyph glyph-name="parenleft" unicode="(" horiz-adv-x="172" 
d="M200.87 -142.028c14.6885 -15.04 14.4023 -39.1367 -0.632812 -53.8301c-7.40527 -7.23242 -17.0059 -10.8359 -26.5977 -10.8359c-9.88867 0 -19.7725 3.83203 -27.2285 11.4658c-39.8662 40.8096 -64.6719 108.104 -78.4639 157.363
c-16.2451 58.0234 -27.9434 127.931 -34.7734 207.786c-18 210.531 3.91211 432.418 58.624 593.541c14.1689 41.7227 27.2207 69.1885 42.332 89.0371c12.7266 16.7314 36.6055 19.9795 53.3408 7.24023c16.7275 -12.7305 19.9668 -36.6143 7.23633 -53.3418
c-14.3291 -18.8291 -26.7422 -55.3926 -30.8232 -67.4082c-51.501 -151.679 -72.0049 -361.985 -54.8545 -562.581c6.4248 -75.1182 17.2646 -140.302 32.2285 -193.744c16.1094 -57.5498 37.2812 -101.832 59.6123 -124.692z" />
    <glyph glyph-name="parenright" unicode=")" horiz-adv-x="172" 
d="M79.9023 763.46c54.7119 -161.114 76.6221 -382.997 58.626 -593.54c-6.83008 -79.8555 -18.5283 -149.763 -34.7695 -207.786c-13.792 -49.2598 -38.6016 -116.55 -78.4639 -157.363c-7.45605 -7.63379 -17.3447 -11.4658 -27.2334 -11.4658
c-9.5918 0 -19.1924 3.60352 -26.5938 10.8359c-15.04 14.6934 -15.3232 38.7881 -0.634766 53.832c22.3311 22.8604 43.499 67.1465 59.6133 124.691c14.959 53.4424 25.8027 118.626 32.2275 193.744c17.1504 200.601 -3.35352 410.911 -54.8545 562.581
c-4.08105 12.0117 -16.4941 48.5791 -30.8271 67.4082c-12.7305 16.7275 -9.49121 40.6064 7.23633 53.3408c16.7314 12.7305 40.6152 9.48633 53.3457 -7.24121c15.1074 -19.8525 28.1592 -47.3145 42.3281 -89.0371z" />
    <glyph glyph-name="asterisk" unicode="*" horiz-adv-x="284" 
d="M265.038 605.94c2.88867 -20.8213 -11.6416 -40.042 -32.4541 -42.9346c-13.9443 -1.9375 -27.6816 -3.51074 -41.3213 -4.7793c10.3916 -33.9531 21.1211 -67.75 32.3711 -101.944c6.56836 -19.9668 -4.29297 -41.4814 -24.2646 -48.0498
c-3.9502 -1.29883 -7.95996 -1.91602 -11.9014 -1.91602c-15.9951 0 -30.8828 10.1553 -36.1523 26.1758c-3.67578 11.1611 -7.2832 22.2715 -10.8525 33.3691c-3.52734 -9.89258 -7.08887 -19.7979 -10.7051 -29.7373c-5.625 -15.458 -20.2246 -25.0586 -35.7715 -25.0586
c-4.32227 0 -8.7168 0.740234 -13.0137 2.30469c-19.7559 7.18555 -29.9443 29.0264 -22.7539 48.7822c11.3008 31.0645 22.1406 61.8164 32.6719 92.7168c-12.2988 0.3125 -24.7041 0.853516 -37.3164 1.68262c-20.9775 1.37891 -36.8633 19.502 -35.4844 40.4795
s19.4854 36.8545 40.4805 35.4844c10.8145 -0.714844 21.3496 -1.15918 31.7832 -1.46777c-10.0576 35.2686 -19.9248 71.2139 -29.7666 108.449c-5.37109 20.3262 6.75 41.1562 27.0723 46.5273c20.3262 5.37988 41.1562 -6.74609 46.5273 -27.0723
c3.35352 -12.6885 6.70703 -25.2158 10.0732 -37.6289c3.3916 11.2373 6.7793 22.5723 10.167 34.0547c5.95117 20.166 27.1152 31.6787 47.2812 25.7363c20.1611 -5.95117 31.6816 -27.1152 25.7354 -47.2812c-9.96875 -33.7891 -19.9336 -66.4531 -30.0381 -98.4736
c8.1377 0.900391 16.3389 1.88574 24.6924 3.04492c20.834 2.88477 40.0479 -11.6387 42.9404 -32.4639z" />
    <glyph glyph-name="plus" unicode="+" horiz-adv-x="240" 
d="M192.516 382.168c20.8506 -2.65625 35.6035 -21.71 32.9521 -42.5654c-2.65625 -20.8594 -21.7139 -35.6875 -42.5693 -32.9512c-8.29004 1.05762 -16.3848 1.81055 -24.4082 2.40234c0.130859 -53.8906 -0.186523 -107.964 -1.00684 -163.521
c-0.308594 -20.8301 -17.29 -37.502 -38.0518 -37.502c-0.19043 0 -0.380859 0 -0.571289 0.00390625c-21.0244 0.308594 -37.8105 17.5986 -37.502 38.623c0.807617 54.6611 1.12891 107.875 1.00586 160.895c-7.62598 -0.854492 -15.3193 -1.85254 -23.2109 -3.12988
c-2.05957 -0.330078 -4.10645 -0.491211 -6.12793 -0.491211c-18.3467 0 -34.5029 13.293 -37.5312 31.9873c-3.3584 20.749 10.7383 40.2969 31.4922 43.6592c11.7998 1.91211 23.3887 3.38379 34.8799 4.4834c-0.5625 52.2627 -1.56055 104.889 -3.04492 159.088
c-0.579102 21.0156 15.9912 38.5127 37.0068 39.0918c21.0244 0.477539 38.5176 -15.9961 39.0928 -37.0117c1.49316 -54.4492 2.49512 -107.325 3.06641 -159.829c11.3936 -0.689453 22.8682 -1.74707 34.5283 -3.23145z" />
    <glyph glyph-name="comma" unicode="," horiz-adv-x="113" 
d="M66.5947 114.12c20.5547 -4.40234 33.6436 -24.6436 29.2412 -45.1943l-43.542 -203.146c-3.83203 -17.8652 -19.625 -30.0967 -37.1855 -30.0967c-2.64355 0 -5.3252 0.275391 -8.01465 0.854492c-20.5547 4.40234 -33.6484 24.6445 -29.2412 45.1953l43.542 203.146
c4.40723 20.5586 24.624 33.6865 45.2002 29.2412z" />
    <glyph glyph-name="hyphen" unicode="-" horiz-adv-x="241" 
d="M188.116 404.211c21.0029 -0.871094 37.3262 -18.6025 36.4551 -39.6104c-0.871094 -21.0029 -18.5879 -37.2139 -39.6084 -36.4521c-43.0215 1.78906 -82.3252 1.27734 -127.448 -1.62793c-0.829102 -0.0546875 -1.66211 -0.0800781 -2.48242 -0.0800781
c-19.9082 0 -36.6523 15.4707 -37.9512 35.6152c-1.34961 20.9824 14.5615 39.0889 35.5391 40.4385c47.9102 3.08301 89.6963 3.61133 135.496 1.7168z" />
    <glyph glyph-name="period" unicode="." horiz-adv-x="79" 
d="M35.0908 -68.1709c-0.469727 0 -0.943359 0.00683594 -1.41309 0.0234375c-21.0117 0.765625 -37.4219 18.4189 -36.6523 39.4307c0.769531 21.0625 2.22852 42.1719 4.33008 62.7266c2.13574 20.9102 20.7959 36.1445 41.7402 33.9922
c20.9141 -2.13965 36.1318 -20.8252 33.9922 -41.7393c-1.93262 -18.9092 -3.27734 -38.3428 -3.9834 -57.7598c-0.749023 -20.5342 -17.6367 -36.6738 -38.0137 -36.6738z" />
    <glyph glyph-name="slash" unicode="/" horiz-adv-x="208" 
d="M157.783 763.295c20.8506 -2.67676 35.5811 -21.751 32.9043 -42.6064c-8.06543 -62.7393 -15.2891 -120.001 -22.251 -175.169c-22.1025 -175.194 -41.1943 -326.488 -75.6973 -563.724c-2.75293 -18.9473 -19.0234 -32.5908 -37.6201 -32.5908
c-1.82715 0 -3.6709 0.135742 -5.52734 0.402344c-20.8047 3.02832 -35.2139 22.3438 -32.1895 43.1436c34.3975 236.524 53.4463 387.492 75.5029 562.297c6.96973 55.2236 14.2021 112.54 22.2715 175.347c2.68164 20.8428 21.7686 35.5947 42.6064 32.9004z" />
    <glyph glyph-name="zero" unicode="0" horiz-adv-x="351" 
d="M230.834 713.165c81.9111 -67.4883 91.8193 -288.894 92.6777 -313.91c3.66309 -106.534 -7.08398 -211.229 -29.4824 -287.243c-2.55859 -8.66992 -5.26953 -17.0693 -8.06543 -24.9658c-0.00390625 0 -0.00390625 -0.00390625 -0.00390625 -0.0078125
c-10.2734 -28.9844 -22.0479 -52.1865 -34.998 -68.9775c-20.1572 -26.125 -45.7666 -39.8369 -72.4199 -39.8369c-11.707 0 -23.6123 2.64355 -35.3535 8.04004c-31.7373 14.5869 -59.1016 48.7227 -79.1318 98.7012c-18.8838 47.1328 -31.4238 107.524 -35.3066 170.056
c-9.8252 158.188 8.54688 266.13 25.6885 328.831c17.3027 63.2969 49.6533 140.623 105.485 149.53c25.4189 4.04297 49.9365 -2.93555 70.9102 -20.2168zM221.008 133.525c20.1826 68.499 29.8125 164.4 26.4248 263.11
c-3.55273 103.312 -28.8398 227.973 -65.0098 257.773c-4.39453 3.62012 -7.16504 4.11035 -9.12305 3.9668c-6.57227 -4.29688 -29.9062 -31.3438 -48.6553 -106.99c-13.8721 -55.9678 -28.5859 -151.996 -19.9111 -291.646
c3.3916 -54.6484 14.0459 -106.661 29.9902 -146.455c14.249 -35.5566 30.1436 -53.1973 40.2686 -57.8496c2.39355 -1.0957 6.38184 -2.93945 15.6992 9.13086c5.51953 7.14746 14.0752 21.2607 23.5156 47.8936c2.33887 6.61035 4.62695 13.6992 6.80078 21.0664z" />
    <glyph glyph-name="one" unicode="1" horiz-adv-x="245" 
d="M214.559 702.473c-2.8252 -235.053 -2.4541 -454.94 1.16602 -692.011c0.321289 -21.0205 -16.457 -38.3232 -37.4775 -38.6445c-0.194336 -0.00390625 -0.397461 -0.00390625 -0.591797 -0.00390625c-20.749 0 -37.7305 16.6592 -38.0479 37.4805
c-3.20605 209.474 -3.87891 405.586 -2.05566 610.496c-7.51953 -6.66992 -14.9209 -13.6357 -21.7891 -20.9229c-7.49023 -7.94238 -17.5898 -11.9521 -27.707 -11.9521c-9.36816 0 -18.749 3.43457 -26.1035 10.3662c-15.2939 14.4219 -16.0088 38.5127 -1.58691 53.8105
c19.5352 20.7236 40.5635 37.8105 59.1182 52.8838c11.7197 9.52051 22.7881 18.5166 29.9697 25.7578c0.0634766 0.0634766 0.130859 0.114258 0.194336 0.177734c0.634766 0.629883 1.30273 1.21387 1.97559 1.79785
c0.279297 0.241211 0.545898 0.503906 0.829102 0.736328c0.761719 0.62207 1.56543 1.20117 2.37793 1.76367c0.21582 0.148438 0.415039 0.313477 0.630859 0.457031c4.80859 3.19727 10.3867 5.29102 16.3838 6.01465
c0.308594 0.0419922 0.613281 0.101562 0.921875 0.130859c0.651367 0.0634766 1.31543 0.0722656 1.97559 0.101562c0.625977 0.0292969 1.25195 0.0712891 1.87793 0.0712891c0.110352 0 0.220703 0.0126953 0.331055 0.0126953
c0.469727 -0.00878906 0.921875 -0.0683594 1.38672 -0.0898438c0.680664 -0.0341797 1.36621 -0.0556641 2.04688 -0.12793c0.625977 -0.0673828 1.23926 -0.168945 1.85645 -0.261719c0.609375 -0.0927734 1.21387 -0.177734 1.81836 -0.300781
c0.647461 -0.130859 1.27734 -0.295898 1.91211 -0.457031c0.566406 -0.143555 1.12891 -0.283203 1.69141 -0.457031c0.625977 -0.19043 1.23535 -0.410156 1.84863 -0.634766c0.558594 -0.199219 1.11719 -0.402344 1.66699 -0.630859
c0.583984 -0.245117 1.14648 -0.520508 1.71777 -0.791016c0.553711 -0.266602 1.10742 -0.529297 1.65332 -0.821289c0.545898 -0.295898 1.07422 -0.617188 1.60254 -0.938477c0.533203 -0.321289 1.06641 -0.638672 1.58691 -0.989258
c0.52832 -0.359375 1.03613 -0.748047 1.54785 -1.12891c0.482422 -0.359375 0.964844 -0.714844 1.43457 -1.09961c0.541016 -0.448242 1.04883 -0.925781 1.56445 -1.40332c0.330078 -0.304688 0.680664 -0.580078 1.00586 -0.901367
c0.0761719 -0.0761719 0.139648 -0.161133 0.21582 -0.237305c0.50293 -0.507812 0.972656 -1.04883 1.44629 -1.58594c0.363281 -0.410156 0.751953 -0.811523 1.09473 -1.23438c0.384766 -0.473633 0.731445 -0.981445 1.09082 -1.47168
c0.380859 -0.515625 0.782227 -1.02344 1.13281 -1.55664c0.245117 -0.37207 0.452148 -0.769531 0.68457 -1.14551c0.414062 -0.676758 0.84082 -1.34473 1.20898 -2.04297c0.165039 -0.308594 0.291992 -0.638672 0.448242 -0.956055
c0.384766 -0.791016 0.77832 -1.57324 1.1084 -2.37695c0.237305 -0.575195 0.418945 -1.17578 0.625977 -1.76367c0.203125 -0.566406 0.427734 -1.125 0.601562 -1.7002c0.19043 -0.634766 0.326172 -1.29004 0.482422 -1.93262
c0.135742 -0.558594 0.300781 -1.1123 0.411133 -1.6748c0.110352 -0.549805 0.165039 -1.11621 0.25 -1.67871c0.105469 -0.676758 0.223633 -1.35352 0.287109 -2.03906c0.046875 -0.495117 0.046875 -0.994141 0.0761719 -1.49316
c0.0419922 -0.769531 0.0927734 -1.53906 0.0888672 -2.30859c0 -0.0976562 0.0126953 -0.195312 0.0126953 -0.292969z" />
    <glyph glyph-name="two" unicode="2" horiz-adv-x="288" 
d="M138.72 746.111c53.7217 6.57715 101.887 -33.5684 119.841 -99.8936c12.8662 -47.5303 6.65332 -101.679 1.80176 -129.729c-7.35938 -42.5518 -18.377 -85.2939 -34.6816 -134.516c-17.1797 -51.8652 -36.6436 -100.423 -55.4639 -147.382
c-24.459 -61.0176 -47.5645 -118.656 -66.7197 -184.271c-0.304688 -1.03613 -0.714844 -2.44434 -1.17578 -4.11914c35.7891 0.105469 85.9961 0.702148 111.102 3.06641c20.9355 2.0127 39.4941 -13.3945 41.4648 -34.3262s-13.3984 -39.4941 -34.3301 -41.4648
c-31.3525 -2.95605 -93.749 -3.42969 -130.587 -3.42969c-16.2744 0 -27.5498 0.0888672 -28.9756 0.101562c-17.958 0.15625 -33.3652 12.8447 -36.9648 30.4395c-5.24023 25.6426 0.660156 51.4463 6.38672 71.0625c20.1914 69.1719 45.0732 131.242 69.1338 191.266
c18.3975 45.8936 37.417 93.3477 53.8613 142.992c15.0908 45.5547 25.2373 84.8115 31.9365 123.553c6.42871 37.1768 6.33105 72.4756 -0.271484 96.8535c-8.29785 30.667 -25.2998 45.6816 -37.1084 44.2354c-17.9668 -2.20312 -47.1963 -40.3691 -49.1289 -133.42
c-0.435547 -21.0244 -17.7969 -37.6201 -38.8467 -37.2695c-21.0156 0.439453 -37.7002 17.8311 -37.2646 38.8467c2.96484 142.813 61.8633 200.781 115.991 207.404z" />
    <glyph glyph-name="three" unicode="3" horiz-adv-x="277" 
d="M250.196 603.598c4.80078 -59.6348 -13.9443 -112.275 -25.5586 -138.354c-13.2803 -29.8428 -28.7129 -54.5381 -45.876 -73.6553c18.7617 -18.5752 35.1504 -44.7422 47.8086 -77.3086c9.27051 -23.8457 15.6523 -48.5576 18.9639 -73.4395
c6.22949 -46.7725 2.42285 -100.643 -10.4434 -147.783c-19.5439 -71.6201 -56.2549 -116.113 -100.714 -122.064c-3.46387 -0.460938 -6.90625 -0.689453 -10.3105 -0.693359c-43.2412 -0.00390625 -81.5723 36.9824 -103.938 101.219
c-6.91113 19.8525 3.58203 41.5498 23.4346 48.4648c19.8398 6.90625 41.5449 -3.58301 48.46 -23.4355c12.3457 -35.4551 27.8037 -48.8496 32.4814 -50.0342c5.69238 1.68359 24.416 19.959 37.1426 66.5879c10.1416 37.1592 13.2881 81.1572 8.42383 117.699
c-2.5127 18.8799 -7.37695 37.6885 -14.457 55.9043c-18.4951 47.5938 -40.3018 61.6562 -47.9355 60.9199c-19.502 -1.68359 -37.1221 11.6562 -40.7344 30.8955c-3.61621 19.2441 7.95508 38.0859 26.751 43.5674c20.4404 5.96387 43.3936 33.6709 61.3936 74.1211
c8.65723 19.4512 22.665 58.4717 19.2178 101.273c-3.36621 41.8115 -21.9287 61.9268 -27.5371 67.0996c-10.3193 9.50781 -16.9551 7.88379 -19.459 7.27051c-10.4297 -2.56738 -24.9492 -16.3086 -33.8652 -41.2236
c-7.08398 -19.7939 -28.8691 -30.0928 -48.667 -23.0088c-19.7891 7.08887 -30.0918 28.874 -23.0078 48.668c16.7148 46.6924 49.374 80.1465 87.3584 89.4893c31.501 7.74805 63.1914 -1.20996 89.2363 -25.2119c29.1113 -26.8311 48.0039 -69.4678 51.8311 -116.968z" />
    <glyph glyph-name="four" unicode="4" horiz-adv-x="338" 
d="M307.619 702.473c-2.8291 -235.078 -2.45215 -454.97 1.18066 -692.011c0.325195 -21.0205 -16.457 -38.3232 -37.4775 -38.6445c-0.199219 -0.00390625 -0.398438 -0.00390625 -0.597656 -0.00390625c-20.749 0 -37.7256 16.6592 -38.0469 37.4805
c-0.841797 54.9229 -1.50195 108.911 -1.99219 162.4c-9.52441 -0.40625 -20.1025 -0.914062 -30.9463 -1.43848c-40.6484 -1.9668 -67.9072 -3.12109 -86.8633 -3.12109c-33.3193 0 -40.9873 3.57422 -50.6133 12.6465c-7.67188 7.22852 -12.1377 17.3789 -12.2559 27.8633
c-0.0927734 8.35742 -0.139648 12.5488 76.2217 221.803c17.9541 49.209 78.8105 215.373 108.031 287.733c0.0419922 0.105469 0.0966797 0.198242 0.138672 0.303711c0.325195 0.787109 0.688477 1.54395 1.06445 2.30078
c0.199219 0.401367 0.380859 0.811523 0.592773 1.2002c0.325195 0.604492 0.688477 1.18359 1.04785 1.77148c0.3125 0.511719 0.608398 1.03223 0.942383 1.52246c0.253906 0.375977 0.537109 0.726562 0.807617 1.09473
c0.473633 0.651367 0.943359 1.30273 1.45508 1.91602c0.130859 0.161133 0.279297 0.304688 0.415039 0.460938c0.672852 0.77832 1.3584 1.54395 2.08203 2.25879c0.00390625 0.00390625 0.0126953 0.0078125 0.0166016 0.0117188
c0.858398 0.841797 1.75098 1.64551 2.67676 2.40234c0.0341797 0.0341797 0.0761719 0.0595703 0.114258 0.0888672c0.892578 0.723633 1.81445 1.41309 2.76562 2.04785c0.397461 0.262695 0.816406 0.491211 1.22266 0.741211
c0.613281 0.375977 1.21777 0.764648 1.84766 1.10742c0.77832 0.422852 1.59082 0.791016 2.39844 1.15918c0.287109 0.130859 0.566406 0.287109 0.858398 0.410156c0.829102 0.350586 1.68359 0.646484 2.54199 0.938477
c0.300781 0.105469 0.59668 0.232422 0.901367 0.330078c0.672852 0.211914 1.36621 0.368164 2.05176 0.541992c0.524414 0.135742 1.04492 0.291992 1.57324 0.402344c0.473633 0.101562 0.959961 0.15625 1.44238 0.236328
c0.774414 0.130859 1.54395 0.266602 2.32617 0.351562c0.325195 0.0341797 0.65918 0.0380859 0.989258 0.0634766c0.947266 0.0761719 1.89062 0.139648 2.84668 0.143555c0.0546875 0 0.109375 0.00878906 0.164062 0.00878906c0.15625 0 0.3125 0 0.46875 -0.00390625
c0.287109 -0.00390625 0.5625 -0.0458984 0.849609 -0.0546875c0.854492 -0.0292969 1.70508 -0.0712891 2.55957 -0.160156c0.520508 -0.0546875 1.03223 -0.134766 1.54785 -0.207031c0.689453 -0.101562 1.37891 -0.203125 2.06836 -0.342773
c0.685547 -0.135742 1.34961 -0.304688 2.01758 -0.478516c0.511719 -0.135742 1.02344 -0.258789 1.53516 -0.415039c0.8125 -0.245117 1.60352 -0.532227 2.39062 -0.828125c0.275391 -0.105469 0.554688 -0.177734 0.830078 -0.288086
c0.110352 -0.046875 0.211914 -0.106445 0.326172 -0.15332c0.794922 -0.325195 1.56934 -0.697266 2.33496 -1.07812c0.393555 -0.194336 0.794922 -0.375977 1.17578 -0.583008c0.638672 -0.34668 1.25195 -0.727539 1.86914 -1.1084
c0.477539 -0.295898 0.967773 -0.579102 1.42871 -0.891602c0.457031 -0.308594 0.888672 -0.651367 1.33301 -0.981445c0.566406 -0.426758 1.1416 -0.84082 1.68262 -1.29297c0.325195 -0.270508 0.625 -0.566406 0.9375 -0.845703
c0.604492 -0.541016 1.21387 -1.08203 1.78027 -1.65723c0.275391 -0.283203 0.529297 -0.587891 0.795898 -0.875977c0.558594 -0.604492 1.11719 -1.20117 1.62891 -1.83594c0.317383 -0.393555 0.600586 -0.807617 0.905273 -1.21387
c0.414062 -0.553711 0.84082 -1.10352 1.22559 -1.67871s0.727539 -1.17969 1.07812 -1.77637c0.253906 -0.439453 0.533203 -0.862305 0.770508 -1.30664c0.384766 -0.71875 0.722656 -1.46777 1.06543 -2.21191c0.161133 -0.355469 0.342773 -0.702148 0.495117 -1.06152
c0.317383 -0.75293 0.583984 -1.52734 0.850586 -2.30176c0.135742 -0.388672 0.291992 -0.773438 0.415039 -1.1709c0.211914 -0.680664 0.376953 -1.38281 0.550781 -2.08496c0.130859 -0.524414 0.274414 -1.04004 0.384766 -1.56836
c0.114258 -0.571289 0.194336 -1.15039 0.283203 -1.72949c0.110352 -0.689453 0.220703 -1.37891 0.292969 -2.07715c0.046875 -0.460938 0.0595703 -0.930664 0.0888672 -1.39551c0.0546875 -0.825195 0.0966797 -1.64551 0.0966797 -2.47461
c-0.00390625 -0.130859 0.0126953 -0.257812 0.0126953 -0.388672zM196.062 246.298c12.2354 0.591797 23.7539 1.14258 34.0352 1.56934c-0.50293 81.209 -0.604492 161.682 -0.295898 242.789c-34.2754 -92.8779 -69.8154 -191.114 -89.4863 -246.786
c18.7402 0.638672 39.874 1.6582 55.7471 2.42773z" />
    <glyph glyph-name="five" unicode="5" horiz-adv-x="291" 
d="M119.215 491.266c42.8691 -3.32422 93.5371 -23.4912 120.639 -83.2607c36.5586 -80.6592 27.9941 -197.314 22.6143 -243.728c-6.98242 -60.2559 -25.8242 -113.335 -51.6992 -145.639c-18.4658 -23.0459 -41.1143 -36.6436 -65.501 -39.3164
c-2.92676 -0.321289 -5.84473 -0.477539 -8.75 -0.477539c-18.6895 0 -36.7197 6.61035 -52.6016 19.3789c-32.5703 26.1846 -55.6543 79.3564 -61.7402 142.234c-2.02637 20.9229 13.2969 39.5283 34.2197 41.5537c20.9316 2.02539 39.5283 -13.2939 41.5537 -34.2207
c4.35156 -44.9756 20.2285 -79.4365 33.6611 -90.2344c1.29395 -1.03613 3.70898 -2.8125 5.36719 -2.55469c2.19043 0.237305 7.68066 2.87207 14.376 11.2334c16.6719 20.8125 30.2734 61.7402 35.4922 106.805c7.47754 64.4854 7.10938 151.813 -16.3301 203.53
c-22.6865 50.0508 -77.9814 38.3984 -84.2031 36.9014c-11.999 -3.10059 -24.6025 -0.114258 -34.0342 7.91699s-14.2148 20.1904 -13.0684 32.5273c0.698242 7.51172 17.1592 184.706 26.7305 256.268c0.0507812 0.37207 0.143555 0.722656 0.203125 1.08594
c0.123047 0.75293 0.25 1.50586 0.415039 2.24609c0.118164 0.511719 0.253906 1.00684 0.389648 1.50977c0.19043 0.714844 0.384766 1.4209 0.617188 2.11914c0.177734 0.52832 0.376953 1.04004 0.571289 1.55566c0.241211 0.638672 0.491211 1.27344 0.766602 1.89062
c0.237305 0.541016 0.503906 1.06152 0.766602 1.58984c0.283203 0.571289 0.575195 1.1377 0.887695 1.69141c0.295898 0.524414 0.613281 1.03223 0.93457 1.54004c0.333984 0.533203 0.676758 1.06152 1.03613 1.57715c0.333984 0.473633 0.68457 0.93457 1.04004 1.3916
c0.40625 0.524414 0.8125 1.04004 1.24414 1.53906c0.342773 0.397461 0.698242 0.782227 1.05762 1.16309c0.495117 0.52832 0.994141 1.04395 1.51465 1.54297c0.330078 0.3125 0.664062 0.608398 1.00195 0.90918c0.591797 0.52832 1.20117 1.04395 1.82715 1.53906
c0.295898 0.232422 0.595703 0.452148 0.900391 0.671875c0.698242 0.515625 1.40918 1.01074 2.14062 1.48047c0.270508 0.168945 0.545898 0.330078 0.816406 0.495117c0.782227 0.469727 1.57715 0.921875 2.39746 1.33594
c0.257812 0.130859 0.524414 0.253906 0.787109 0.380859c0.837891 0.401367 1.68359 0.777344 2.55469 1.12012c0.291992 0.114258 0.587891 0.21582 0.879883 0.321289c0.845703 0.308594 1.7002 0.591797 2.57129 0.841797
c0.363281 0.105469 0.735352 0.19043 1.10352 0.283203c0.807617 0.199219 1.62012 0.389648 2.44922 0.541992c0.464844 0.0849609 0.938477 0.148438 1.41211 0.21582c0.744141 0.105469 1.49316 0.207031 2.25488 0.270508
c0.566406 0.0507812 1.1377 0.0673828 1.70898 0.0888672c0.495117 0.0214844 0.977539 0.0761719 1.47266 0.0761719h105.73c21.0244 0 38.0645 -17.04 38.0645 -38.0645s-17.04 -38.0645 -38.0645 -38.0645h-72.0605
c-6.11133 -52.7998 -13.5547 -128.337 -18.1182 -175.804z" />
    <glyph glyph-name="six" unicode="6" horiz-adv-x="272" 
d="M185.225 357.527c45.7744 -33.1416 59.6963 -112.873 63.5488 -145.617c7.52832 -63.8594 -1.1543 -133.276 -22.1191 -176.848c-18.5967 -38.6396 -43.6221 -52.4912 -61.3389 -57.3125c-6.36914 -1.73438 -12.8574 -2.58887 -19.3408 -2.58887
c-15.3818 0 -30.7725 4.81738 -44.7256 14.1816c-26.5898 17.8604 -48.1855 51.7764 -60.8145 95.5088c-14.9424 51.7549 -19.0537 120.876 -12.2568 205.692c0.0341797 0.533203 0.0761719 1.06152 0.130859 1.58984c0.533203 6.50879 1.125 13.1113 1.78516 19.8066
c14.1094 143.368 48.0166 276.365 95.4746 374.5c8.27734 17.1035 19.6074 38.8594 33.9326 55.4346c13.7451 15.9023 37.7812 17.6533 53.6885 3.90332c15.9023 -13.7451 17.6494 -37.7803 3.9043 -53.6875c-8.60254 -9.95215 -17.2393 -26.9033 -22.9912 -38.7969
c-36.0645 -74.5811 -63.7285 -172.103 -79.7285 -279.702c24.5645 4.95215 49.6699 -0.732422 70.8506 -16.0645zM158.059 68.0732c14.4395 30.0029 20.7949 86.75 15.1152 134.932c-6.50488 55.168 -23.4434 86.2373 -32.5957 92.8604
c-5.18066 3.74707 -8.64844 3.66211 -11.3633 3.05762c-6.37793 -1.38281 -16.1143 -8.10742 -25.7744 -22.6738c-5.08398 -71.0156 -1.6416 -129.491 10.1328 -170.271c8.76758 -30.3711 21.3037 -47.5127 30.1133 -53.4258
c0.96875 -0.651367 1.6582 -0.981445 2.06836 -1.14258c1.91211 1.04492 6.91504 5.47266 12.3037 16.6641z" />
    <glyph glyph-name="seven" unicode="7" horiz-adv-x="294" 
d="M249.539 732.446c10.5566 -1.07812 20.2383 -6.54688 26.6162 -15.0264c10.4971 -13.9609 8.91992 -23.7607 3.03223 -60.2139c-2.96094 -18.3428 -7.41895 -44.4131 -13.6191 -79.7031c-11.4912 -65.3906 -27.542 -154.17 -43.0684 -240.022
c-23.9424 -132.405 -48.7012 -269.323 -59.0039 -332.811c-3.03223 -18.6855 -19.1885 -31.9746 -37.5273 -31.9746c-2.02539 0 -4.07617 0.161133 -6.14453 0.495117c-20.749 3.36621 -34.8418 22.9189 -31.4756 43.668c10.417 64.168 35.2354 201.425 59.2373 334.164
c20.0811 111.047 43.9219 242.894 54.6016 306.952c-12.6758 0.0722656 -26.8867 -0.15625 -41.4023 -0.330078c-24.1416 -0.287109 -49.1035 -0.587891 -73.3125 -0.207031c-21.0205 0.325195 -37.7939 17.6318 -37.4688 38.6523s17.6787 37.5957 38.6523 37.4688
c23.1689 -0.368164 47.6025 -0.0761719 71.2236 0.210938c36.8975 0.431641 68.7617 0.816406 89.6592 -1.32324z" />
    <glyph glyph-name="eight" unicode="8" horiz-adv-x="280" 
d="M239.853 654.156c25.6221 -104.83 5.59961 -231.132 -9.0127 -323.35c-3.28613 -20.7158 -6.39453 -40.332 -8.53027 -56.9834c5.62891 -15.9238 10.6875 -32.7568 15.1494 -50.4355c5.0625 -20.0518 11.7578 -50.584 11.4746 -84.043
c-0.194336 -22.8047 -3.6543 -46.4893 -10.0029 -68.4863c-13.7705 -47.7334 -39.4004 -80.2578 -72.165 -91.5879c-8.03613 -2.77441 -16.1816 -4.14941 -24.251 -4.15332c-15.3525 0 -30.4307 4.97363 -43.9863 14.7354c-46.2227 33.29 -66.8369 114.367 -70.7109 179.141
c-4.28418 71.5781 8.38281 147.335 33.8906 202.651c2.66406 5.79004 5.6543 11.4062 9 16.9092c-1.01074 1.77246 -2.01758 3.56543 -3.01953 5.39258c-14.79 26.9541 -39.5527 82.833 -39.2607 154.289c0.126953 31.4629 5.21094 63.9824 14.7021 94.0449
c16.7949 53.2012 46.7178 89.5186 82.0967 99.6523c21.6973 6.2002 43.2041 3.6416 62.207 -7.38867c24.9873 -14.5107 43.1104 -42.3105 52.4189 -80.3877zM165.787 91.9648c4.45801 15.4375 6.88184 32.0449 7.02148 48.0195
c0.15625 18.7959 -2.75391 39.3721 -9.16602 64.7656c-9.24121 36.5967 -21.7432 69.751 -36.1523 95.8721c-2.29688 4.16211 -4.66113 8.18848 -7.08496 12.1387c-13.1953 -40.8604 -19.4424 -91.6641 -16.5957 -139.224
c3.98438 -66.6084 25.6436 -111.99 39.1016 -121.836c4.01758 2.38086 14.9883 12.9287 22.876 40.2637zM162.488 386.871c11.749 79.208 21.8203 173.889 3.41406 249.21c-5.16016 21.0918 -12.9258 30.4346 -16.7031 32.6299
c-0.625977 0.363281 -1.03613 0.595703 -3.01953 0.0332031c-3.44727 -0.989258 -18.7324 -12.2695 -30.4521 -49.3828c-5.02832 -15.9316 -11.0469 -41.2529 -11.1699 -71.4385c-0.228516 -54.3311 18.6172 -96.8447 29.8721 -117.354
c4.2041 -7.66797 8.64062 -14.8711 13.2588 -21.9424c0.355469 -0.515625 0.702148 -1.04004 1.03223 -1.57324c4.40723 -6.69043 8.97949 -13.2754 13.6699 -20.042c0.0292969 -0.046875 0.0634766 -0.09375 0.0976562 -0.140625z" />
    <glyph glyph-name="nine" unicode="9" horiz-adv-x="292" 
d="M210.99 763.596c20.9609 1.76367 39.3916 -13.708 41.2188 -34.6523c11.9688 -138.453 14.2227 -271.831 7.0918 -419.746c-2.35547 -48.8154 -6.4668 -112.392 -17.4336 -171.252c-15.8389 -84.9893 -42.374 -137.332 -78.8564 -155.578
c-9.94336 -4.97754 -20.2881 -7.43066 -30.6924 -7.43066c-19.8779 0 -39.9932 8.94922 -57.9932 26.3408c-15.6318 15.0947 -29.8721 36.0811 -46.1641 68.0381c-9.5498 18.7275 -2.10645 41.6504 16.6211 51.1963c18.7324 9.5498 41.6553 2.10645 51.2012 -16.6211
c11.9609 -23.4561 22.1748 -39.1172 31.2295 -47.8594c1.69629 -1.63281 3.0918 -2.75391 4.16602 -3.51562c8.21387 8.59863 24.4375 39.249 35.6455 99.3779c10.125 54.3389 13.9902 114.569 16.2275 160.975c0.8125 16.833 1.48535 33.4541 2.04785 49.9277
c-5.9043 -7.68457 -12.4053 -14.2275 -19.6416 -19.4297c-12.8955 -9.2793 -27.3223 -14.0078 -42.4043 -14.0078c-5.58301 0 -11.25 0.647461 -16.9727 1.9502c-61.2666 13.9697 -75.3633 107.042 -76.7676 117.607c-4.62695 34.7871 -4.65625 73.2109 -0.0839844 108.192
c22.8643 175 101.154 200.943 133.755 203.976c10.9375 1.01465 21.583 -0.0429688 31.5732 -2.77051c4.80078 2.87598 10.2861 4.7666 16.2324 5.28223zM171.453 634.311c1.86133 18.6094 3.52637 35.3076 5.27344 49.7676
c-1.3623 0.769531 -3.10938 1.26465 -5.19824 1.26465c-0.418945 0 -0.854492 -0.0214844 -1.29883 -0.0634766c-16.5537 -1.54395 -51.5098 -32.3721 -65.3145 -138.035c-3.67969 -28.1553 -3.6582 -60.3369 0.0595703 -88.293
c3.05371 -22.9863 12.0625 -44.0361 18.2793 -51.8564c4.85156 5.3252 16.7021 23.0078 27.8555 75.998c9.96875 47.3779 15.7207 104.957 20.3438 151.218z" />
    <glyph glyph-name="colon" unicode=":" horiz-adv-x="124" 
d="M68.9238 504.494c20.9062 -2.21191 36.0596 -20.958 33.8477 -41.8682c-2.68945 -25.3887 -4.61816 -51.4541 -5.74316 -77.4688c-0.883789 -20.4453 -17.7334 -36.4238 -38.001 -36.4238c-0.553711 0 -1.1123 0.0126953 -1.6709 0.0380859
c-21.0029 0.905273 -37.2949 18.6641 -36.3896 39.667c1.19238 27.5928 3.24316 55.2529 6.09766 82.2109c2.20801 20.9062 20.9404 36.0859 41.8594 33.8447zM65.4805 44.9863c20.9189 -2.11426 36.1621 -20.7783 34.0518 -41.6885
c-3.03711 -30.1094 -6.65723 -60.3457 -10.7598 -89.8623c-2.64746 -19.0449 -18.9561 -32.833 -37.6543 -32.833c-1.74707 0 -3.51074 0.118164 -5.28711 0.368164c-20.8252 2.88867 -35.3574 22.1152 -32.4648 42.9365c3.97168 28.5869 7.47754 57.8623 10.4209 87.0283
c2.11426 20.9189 20.7998 36.1318 41.6934 34.0508z" />
    <glyph glyph-name="semicolon" unicode=";" horiz-adv-x="145" 
d="M91.6328 506.837c20.8428 -2.75781 35.502 -21.8867 32.7441 -42.7295l-8.80566 -66.4902c-2.5332 -19.1426 -18.8887 -33.0703 -37.6885 -33.0703c-1.66602 0 -3.34961 0.105469 -5.0459 0.333984c-20.8379 2.76172 -35.4971 21.8916 -32.7354 42.7344l8.80176 66.4814
c2.75781 20.8428 21.8574 35.5273 42.7295 32.7402zM67.0645 78.1211c20.8936 -2.36816 35.9072 -21.2197 33.5391 -42.1084c-8.31055 -73.4775 -17.6787 -147.353 -27.8418 -219.569c-2.67676 -19.0195 -18.9727 -32.7646 -37.6455 -32.7646
c-1.76367 0 -3.55273 0.123047 -5.35059 0.376953c-20.8174 2.92676 -35.3203 22.1787 -32.3896 42.9961c10.0664 71.54 19.3457 144.726 27.585 217.521c2.36426 20.8936 21.2529 35.8486 42.1035 33.5479z" />
    <glyph glyph-name="less" unicode="&#x3c;" horiz-adv-x="278" 
d="M243.489 204.237c16.7695 -12.6758 20.0889 -36.5518 7.41797 -53.3125c-7.48145 -9.90527 -18.8711 -15.1162 -30.3965 -15.1201c-7.99316 0 -16.0459 2.50781 -22.9189 7.69727c-22.4072 16.9346 -46.4258 34.2754 -69.6582 51.0488
c-23.5283 16.9854 -47.8604 34.5547 -70.8936 51.959c-12.0957 9.14355 -27.1396 20.5166 -40.4961 40.2422c-8.89062 13.1279 -8.70898 30.3965 0.456055 43.3428c56.5684 79.8633 115.623 153.784 175.537 219.716c14.1348 15.5557 38.2129 16.7021 53.7686 2.57129
c15.5596 -14.1387 16.71 -38.2119 2.57129 -53.7715c-51.459 -56.627 -102.334 -119.463 -151.518 -187.107c1.78516 -1.3877 3.6416 -2.79199 5.58301 -4.25977c22.3691 -16.9004 46.3584 -34.2236 69.5566 -50.9717c23.5615 -17.0146 47.9229 -34.6045 70.9902 -52.0342z
" />
    <glyph glyph-name="equal" unicode="=" horiz-adv-x="311" 
d="M58.0234 373.912c-18.9395 0 -35.3398 14.1143 -37.7256 33.3916c-2.58398 20.8682 12.2354 39.875 33.0986 42.4551c71.498 8.86523 133.882 10.3711 202.263 4.91895c20.957 -1.6748 36.5889 -20.0176 34.918 -40.9746
c-1.6709 -20.9521 -20.0264 -36.5928 -40.9707 -34.918c-63.0479 5.02441 -120.678 3.61133 -186.859 -4.58105c-1.58594 -0.199219 -3.16309 -0.291992 -4.72363 -0.291992zM255.655 299.657c20.957 -1.6709 36.5898 -20.0117 34.9189 -40.9727
c-1.6709 -20.9521 -20.0264 -36.6182 -40.9707 -34.918c-63.0684 5.04102 -120.698 3.62402 -186.854 -4.58105c-1.58594 -0.199219 -3.16797 -0.291992 -4.72852 -0.291992c-18.9346 0 -35.3408 14.1133 -37.7266 33.3906
c-2.58398 20.8633 12.2314 39.8701 33.0947 42.4541c71.4766 8.85254 133.86 10.375 202.267 4.91895z" />
    <glyph glyph-name="greater" unicode="&#x3e;" horiz-adv-x="278" 
d="M260.775 330.091c9.16504 -12.9463 9.34766 -30.2139 0.461914 -43.3457c-13.3604 -19.7305 -28.4043 -31.1035 -40.4922 -40.2393c-23.0459 -17.4121 -47.3818 -34.9814 -70.9141 -51.9756c-23.2275 -16.7656 -47.2422 -34.1064 -69.6406 -51.0371
c-6.86816 -5.18555 -14.9248 -7.69336 -22.918 -7.69727c-11.5254 0 -22.9111 5.21484 -30.3975 15.1201c-12.6758 16.7656 -9.35156 40.6406 7.41797 53.3164c23.0586 17.4248 47.4199 35.0146 70.9736 52.0215c23.2021 16.7529 47.1953 34.0811 69.5771 50.9902
c1.9375 1.46777 3.79395 2.87207 5.57422 4.25488c-49.1748 67.6367 -100.05 130.469 -151.518 187.108c-14.1387 15.5596 -12.9883 39.6328 2.57129 53.7715c15.5557 14.1348 39.6289 12.9883 53.7676 -2.57129c59.9219 -65.9404 118.977 -139.866 175.536 -219.717z" />
    <glyph glyph-name="question" unicode="?" horiz-adv-x="239" 
d="M201.575 718.557c13.1572 -28.5361 15.3018 -65.7588 15.4121 -85.4082c0.161133 -29.7373 -3.48926 -57.6641 -7.08398 -81.0566c-6.57227 -42.7803 -15.2168 -83.8135 -23.5742 -123.498c-4.2334 -20.085 -8.60645 -40.8516 -12.6113 -61.4023
c-9.78223 -50.1777 -20.9775 -116.697 -20.7402 -186.279c0.0722656 -21.0156 -16.9131 -38.1191 -37.9336 -38.1914h-0.130859c-20.9648 0 -37.9922 16.9561 -38.0645 37.9385c-0.262695 76.2139 11.6982 147.505 22.1494 201.104
c4.11523 21.1133 8.54785 42.1631 12.8369 62.5234c8.1416 38.6738 16.5664 78.6631 22.8213 119.375c3.13867 20.4453 6.33594 44.6455 6.2002 69.0791c-0.143555 26.6201 -4.44043 45.3096 -8.41602 53.9248c-0.571289 1.24805 -1.0957 2.19531 -1.53125 2.89355
c-10.5947 -5.70996 -34.3721 -38.543 -44.2178 -102.64c-3.19336 -20.7832 -22.6396 -35.0742 -43.4014 -31.8428c-20.7793 3.19336 -35.0361 22.623 -31.8428 43.4023c16.6592 108.429 69.2051 175.693 130.73 167.303c14.9932 -2.03809 42.6367 -10.8857 59.3975 -47.2246
zM113.908 38.4072c20.9609 1.74219 39.3535 -13.8145 41.1045 -34.7666c1.35352 -16.207 2.06836 -32.79 2.12305 -49.2891c0.0673828 -21.0156 -16.918 -38.1152 -37.9424 -38.1826h-0.12207c-20.9697 0 -37.9971 16.9639 -38.0645 37.9463
c-0.0419922 14.4688 -0.667969 29.001 -1.85645 43.1865c-1.75488 20.9482 13.8096 39.3545 34.7578 41.1055z" />
    <glyph glyph-name="at" unicode="@" horiz-adv-x="426" 
d="M394.312 590.495c8.4502 -50.2412 9.94336 -109.812 4.32227 -172.263c-4.85547 -53.9121 -13.9863 -98.0625 -27.1309 -131.233c-9.46094 -23.8838 -26.8906 -53.6973 -56.1787 -60.1299c-16.918 -3.72656 -34.1523 1.32715 -47.2803 13.833
c-2.03027 1.93262 -4.2334 4.24609 -6.51758 7.15137c-1.15918 -2.79102 -2.33105 -5.51465 -3.51953 -8.1748c-10.7422 -24.0566 -20.3896 -38.7119 -32.2529 -48.9893c-12.6582 -10.958 -27.9854 -16.1094 -43.2236 -14.4004
c-15.0947 1.65332 -28.8574 9.91309 -38.7461 23.2402c-13.293 17.916 -21.0586 46.71 -23.7402 88.0273c-3.48535 53.6709 0.90918 131.433 18.5752 184.16c6.93164 20.6816 27.9688 83.6152 78.793 80.5234c33.0273 -2.01758 54.377 -31.915 67.9453 -64.8154
c12.8281 -6.22949 21.5488 -19.4248 21.4434 -34.5234c-0.262695 -36.2246 -0.529297 -73.5361 3.29395 -108.052c5.62891 22.3906 9.94727 49.5352 12.709 80.2109c5.0498 56.0645 3.81934 108.902 -3.56934 152.808c-15.1074 89.8115 -53.9209 130.832 -76.3193 136.495
c-24.873 6.30566 -48.0625 -17.4424 -59.6719 -32.1523c-26.3789 -33.4033 -48.6514 -87.7002 -62.71 -152.892c-10.9922 -50.9512 -17.3105 -110.497 -18.2744 -172.204c-0.879883 -56.2803 2.63477 -108.031 10.4424 -153.811
c17.2471 -101.096 56.3438 -165.374 86.0469 -176.616c6.66113 -2.5127 12.9541 -2.11523 20.415 1.30664c22.665 10.4082 46.1504 44.0654 62.8271 90.0391c7.16504 19.7725 29.0059 29.9697 48.7617 22.8096c19.7637 -7.16895 29.9736 -29.001 22.8047 -48.7607
c-24.1748 -66.6553 -60.6191 -113.982 -102.625 -133.272c-14.3252 -6.58105 -29.0771 -9.87988 -43.749 -9.87988c-11.9355 0 -23.8154 2.18652 -35.3828 6.56348c-62.0117 23.4688 -113.411 113.521 -134.135 235.007c-8.59863 50.3887 -12.4766 106.847 -11.5205 167.805
c1.04004 66.6172 7.94629 131.306 19.9746 187.062c16.4609 76.3281 43.9434 141.681 77.377 184.025c39.1855 49.6191 89.5234 71.0283 138.072 58.7754c64.0967 -16.1982 114.959 -91.9424 132.743 -197.673zM196.187 289.909
c12.1387 33.543 22.3389 78.2012 30.0537 131.529c-3.40918 14.9805 -7.5498 27.4697 -11.4912 37.0322c-1.24316 -3.18457 -2.5625 -6.81348 -3.94531 -10.9414c-12.0664 -36.0049 -18.2881 -101.209 -14.7949 -155.041
c0.0595703 -0.875 0.114258 -1.7334 0.177734 -2.5791z" />
    <glyph glyph-name="A" unicode="A" horiz-adv-x="327" 
d="M291.862 -21.0303c-20.7412 -3.46777 -40.3555 10.5479 -43.8154 31.2803c-5.29102 31.7119 -12.0283 73.3672 -19.5732 120.698c-0.19043 0 -0.380859 0 -0.575195 0.00390625c-25.1562 0.499023 -52.1992 0.342773 -80.8193 0.173828
c-15.1494 -0.0927734 -30.7432 -0.181641 -46.7852 -0.181641c-1.28125 0 -2.5498 0.0673828 -3.80176 0.19043c-7.00391 -46.1084 -13.1074 -87.8945 -17.7002 -121.958c-2.57617 -19.1084 -18.9141 -32.9805 -37.6758 -32.9805
c-1.69629 0 -3.40918 0.110352 -5.13477 0.347656c-20.834 2.80859 -35.4463 21.9717 -32.6377 42.8096c20.3984 151.281 70.0176 451.741 97.7793 617.368c7.21973 43.0723 36.665 62.2822 62.7734 62.2822h0.354492c26.3242 -0.177734 55.8965 -19.8994 62.6172 -63.5684
c26.4336 -171.764 74.0908 -479.761 96.2744 -612.657c3.45996 -20.7324 -10.5439 -40.3486 -31.2803 -43.8086zM146.631 207.25c24.3525 0.152344 47.5137 0.260742 69.752 -0.00976562c-17.4551 110.675 -37.1221 237.48 -52.9785 340.191
c-16.8418 -101.323 -37.54 -227.566 -55.1895 -340.343c13.0859 0.0253906 25.9395 0.0888672 38.416 0.161133z" />
    <glyph glyph-name="A" unicode="&#xc5;" horiz-adv-x="327" 
d="M291.862 -21.0303c-20.7412 -3.46777 -40.3555 10.5479 -43.8154 31.2803c-5.29102 31.7119 -12.0283 73.3672 -19.5732 120.698c-0.19043 0 -0.380859 0 -0.575195 0.00390625c-25.1562 0.499023 -52.1992 0.342773 -80.8193 0.173828
c-15.1494 -0.0927734 -30.7432 -0.181641 -46.7852 -0.181641c-1.28125 0 -2.5498 0.0673828 -3.80176 0.19043c-7.00391 -46.1084 -13.1074 -87.8945 -17.7002 -121.958c-2.57617 -19.1084 -18.9141 -32.9805 -37.6758 -32.9805
c-1.69629 0 -3.40918 0.110352 -5.13477 0.347656c-20.834 2.80859 -35.4463 21.9717 -32.6377 42.8096c20.3984 151.281 70.0176 451.741 97.7793 617.368c7.21973 43.0723 36.665 62.2822 62.7734 62.2822h0.354492c26.3242 -0.177734 55.8965 -19.8994 62.6172 -63.5684
c26.4336 -171.764 74.0908 -479.761 96.2744 -612.657c3.45996 -20.7324 -10.5439 -40.3486 -31.2803 -43.8086zM146.631 207.25c24.3525 0.152344 47.5137 0.260742 69.752 -0.00976562c-17.4551 110.675 -37.1221 237.48 -52.9785 340.191
c-16.8418 -101.323 -37.54 -227.566 -55.1895 -340.343c13.0859 0.0253906 25.9395 0.0888672 38.416 0.161133z" />
    <glyph glyph-name="A" unicode="&#xc4;" horiz-adv-x="327" 
d="M291.862 -21.0303c-20.7412 -3.46777 -40.3555 10.5479 -43.8154 31.2803c-5.29102 31.7119 -12.0283 73.3672 -19.5732 120.698c-0.19043 0 -0.380859 0 -0.575195 0.00390625c-25.1562 0.499023 -52.1992 0.342773 -80.8193 0.173828
c-15.1494 -0.0927734 -30.7432 -0.181641 -46.7852 -0.181641c-1.28125 0 -2.5498 0.0673828 -3.80176 0.19043c-7.00391 -46.1084 -13.1074 -87.8945 -17.7002 -121.958c-2.57617 -19.1084 -18.9141 -32.9805 -37.6758 -32.9805
c-1.69629 0 -3.40918 0.110352 -5.13477 0.347656c-20.834 2.80859 -35.4463 21.9717 -32.6377 42.8096c20.3984 151.281 70.0176 451.741 97.7793 617.368c7.21973 43.0723 36.665 62.2822 62.7734 62.2822h0.354492c26.3242 -0.177734 55.8965 -19.8994 62.6172 -63.5684
c26.4336 -171.764 74.0908 -479.761 96.2744 -612.657c3.45996 -20.7324 -10.5439 -40.3486 -31.2803 -43.8086zM146.631 207.25c24.3525 0.152344 47.5137 0.260742 69.752 -0.00976562c-17.4551 110.675 -37.1221 237.48 -52.9785 340.191
c-16.8418 -101.323 -37.54 -227.566 -55.1895 -340.343c13.0859 0.0253906 25.9395 0.0888672 38.416 0.161133z" />
    <glyph glyph-name="A" unicode="&#xc3;" horiz-adv-x="327" 
d="M291.862 -21.0303c-20.7412 -3.46777 -40.3555 10.5479 -43.8154 31.2803c-5.29102 31.7119 -12.0283 73.3672 -19.5732 120.698c-0.19043 0 -0.380859 0 -0.575195 0.00390625c-25.1562 0.499023 -52.1992 0.342773 -80.8193 0.173828
c-15.1494 -0.0927734 -30.7432 -0.181641 -46.7852 -0.181641c-1.28125 0 -2.5498 0.0673828 -3.80176 0.19043c-7.00391 -46.1084 -13.1074 -87.8945 -17.7002 -121.958c-2.57617 -19.1084 -18.9141 -32.9805 -37.6758 -32.9805
c-1.69629 0 -3.40918 0.110352 -5.13477 0.347656c-20.834 2.80859 -35.4463 21.9717 -32.6377 42.8096c20.3984 151.281 70.0176 451.741 97.7793 617.368c7.21973 43.0723 36.665 62.2822 62.7734 62.2822h0.354492c26.3242 -0.177734 55.8965 -19.8994 62.6172 -63.5684
c26.4336 -171.764 74.0908 -479.761 96.2744 -612.657c3.45996 -20.7324 -10.5439 -40.3486 -31.2803 -43.8086zM146.631 207.25c24.3525 0.152344 47.5137 0.260742 69.752 -0.00976562c-17.4551 110.675 -37.1221 237.48 -52.9785 340.191
c-16.8418 -101.323 -37.54 -227.566 -55.1895 -340.343c13.0859 0.0253906 25.9395 0.0888672 38.416 0.161133z" />
    <glyph glyph-name="A" unicode="&#xc2;" horiz-adv-x="327" 
d="M291.862 -21.0303c-20.7412 -3.46777 -40.3555 10.5479 -43.8154 31.2803c-5.29102 31.7119 -12.0283 73.3672 -19.5732 120.698c-0.19043 0 -0.380859 0 -0.575195 0.00390625c-25.1562 0.499023 -52.1992 0.342773 -80.8193 0.173828
c-15.1494 -0.0927734 -30.7432 -0.181641 -46.7852 -0.181641c-1.28125 0 -2.5498 0.0673828 -3.80176 0.19043c-7.00391 -46.1084 -13.1074 -87.8945 -17.7002 -121.958c-2.57617 -19.1084 -18.9141 -32.9805 -37.6758 -32.9805
c-1.69629 0 -3.40918 0.110352 -5.13477 0.347656c-20.834 2.80859 -35.4463 21.9717 -32.6377 42.8096c20.3984 151.281 70.0176 451.741 97.7793 617.368c7.21973 43.0723 36.665 62.2822 62.7734 62.2822h0.354492c26.3242 -0.177734 55.8965 -19.8994 62.6172 -63.5684
c26.4336 -171.764 74.0908 -479.761 96.2744 -612.657c3.45996 -20.7324 -10.5439 -40.3486 -31.2803 -43.8086zM146.631 207.25c24.3525 0.152344 47.5137 0.260742 69.752 -0.00976562c-17.4551 110.675 -37.1221 237.48 -52.9785 340.191
c-16.8418 -101.323 -37.54 -227.566 -55.1895 -340.343c13.0859 0.0253906 25.9395 0.0888672 38.416 0.161133z" />
    <glyph glyph-name="A" unicode="&#xc1;" horiz-adv-x="327" 
d="M291.862 -21.0303c-20.7412 -3.46777 -40.3555 10.5479 -43.8154 31.2803c-5.29102 31.7119 -12.0283 73.3672 -19.5732 120.698c-0.19043 0 -0.380859 0 -0.575195 0.00390625c-25.1562 0.499023 -52.1992 0.342773 -80.8193 0.173828
c-15.1494 -0.0927734 -30.7432 -0.181641 -46.7852 -0.181641c-1.28125 0 -2.5498 0.0673828 -3.80176 0.19043c-7.00391 -46.1084 -13.1074 -87.8945 -17.7002 -121.958c-2.57617 -19.1084 -18.9141 -32.9805 -37.6758 -32.9805
c-1.69629 0 -3.40918 0.110352 -5.13477 0.347656c-20.834 2.80859 -35.4463 21.9717 -32.6377 42.8096c20.3984 151.281 70.0176 451.741 97.7793 617.368c7.21973 43.0723 36.665 62.2822 62.7734 62.2822h0.354492c26.3242 -0.177734 55.8965 -19.8994 62.6172 -63.5684
c26.4336 -171.764 74.0908 -479.761 96.2744 -612.657c3.45996 -20.7324 -10.5439 -40.3486 -31.2803 -43.8086zM146.631 207.25c24.3525 0.152344 47.5137 0.260742 69.752 -0.00976562c-17.4551 110.675 -37.1221 237.48 -52.9785 340.191
c-16.8418 -101.323 -37.54 -227.566 -55.1895 -340.343c13.0859 0.0253906 25.9395 0.0888672 38.416 0.161133z" />
    <glyph glyph-name="B" unicode="B" 
d="M258.352 269.809c33.209 -41.1094 45.0713 -95.5 35.2588 -161.673c-7.0127 -47.3818 -31.7627 -85.6367 -71.5693 -110.624c-33.6699 -21.1348 -72.7627 -29.5635 -107.773 -29.5635c-20.3096 0 -39.2275 2.8418 -54.9395 7.67578
c-1.4082 0.414062 -2.78711 0.904297 -4.12793 1.47559c-0.321289 0.135742 -0.625977 0.304688 -0.943359 0.448242c-0.791016 0.363281 -1.58594 0.726562 -2.34766 1.14551c-0.545898 0.295898 -1.06152 0.629883 -1.58984 0.951172
c-0.50293 0.308594 -1.01465 0.604492 -1.50488 0.93457c-0.604492 0.40625 -1.17578 0.850586 -1.75098 1.29004c-0.388672 0.291992 -0.782227 0.575195 -1.1582 0.883789c-0.571289 0.473633 -1.1084 0.972656 -1.64551 1.47168
c-0.359375 0.330078 -0.722656 0.651367 -1.06934 0.998047c-0.482422 0.486328 -0.93457 0.989258 -1.38672 1.49707c-0.368164 0.414062 -0.749023 0.820312 -1.09961 1.25195c-0.375977 0.457031 -0.722656 0.93457 -1.07812 1.41211
c-0.388672 0.515625 -0.777344 1.03125 -1.13672 1.56836c-0.283203 0.426758 -0.541016 0.862305 -0.807617 1.29785c-0.375977 0.617188 -0.751953 1.23926 -1.09863 1.87793c-0.21582 0.40625 -0.40625 0.820312 -0.609375 1.23047
c-0.333984 0.685547 -0.667969 1.375 -0.963867 2.08105c-0.181641 0.435547 -0.333984 0.875 -0.499023 1.31445c-0.262695 0.689453 -0.520508 1.38281 -0.740234 2.09375c-0.165039 0.533203 -0.295898 1.0791 -0.439453 1.62012
c-0.161133 0.62207 -0.334961 1.23926 -0.46582 1.87402c-0.148438 0.706055 -0.25 1.4209 -0.360352 2.13574c-0.0722656 0.490234 -0.161133 0.967773 -0.21582 1.46289c-0.0976562 0.883789 -0.139648 1.77148 -0.177734 2.66406
c-0.0126953 0.295898 -0.0546875 0.583008 -0.0585938 0.882812c-0.00390625 0.165039 -0.00390625 0.330078 -0.0078125 0.499023c0 0.0849609 -0.00390625 0.161133 -0.00390625 0.246094c-3.63281 218.938 -4.00488 422.098 -1.1709 639.272
c0.00390625 0.168945 0.0292969 0.333984 0.0332031 0.507812c0.0214844 0.803711 0.0810547 1.60352 0.15332 2.39844c0.046875 0.490234 0.0810547 0.976562 0.144531 1.45898c0.0927734 0.723633 0.223633 1.43848 0.359375 2.15332
c0.0976562 0.524414 0.186523 1.05273 0.30957 1.56836c0.165039 0.698242 0.368164 1.37891 0.567383 2.06836c0.143555 0.490234 0.274414 0.985352 0.435547 1.46777c0.266602 0.787109 0.575195 1.55664 0.892578 2.32617
c0.139648 0.337891 0.262695 0.680664 0.411133 1.01465c0.448242 1.00684 0.947266 1.9834 1.48047 2.95215c0.0380859 0.0673828 0.0673828 0.134766 0.105469 0.202148c2.90527 5.18555 7.0498 9.71094 12.248 13.1328
c0.0673828 0.0419922 0.130859 0.0888672 0.198242 0.135742c0.803711 0.520508 1.63672 1.00293 2.49121 1.46777c0.321289 0.177734 0.633789 0.355469 0.958984 0.524414c0.262695 0.135742 0.507812 0.296875 0.774414 0.423828
c0.524414 0.253906 1.1084 0.457031 1.6416 0.702148c0.291992 0.123047 0.575195 0.258789 0.867188 0.373047c39.2314 17.5098 105.896 15.5176 160.303 -22.3818c87.8359 -61.2031 97.8809 -197.525 52.1484 -286.448
c-14.3584 -27.9268 -35.8018 -49.3066 -59.4648 -65.4082c19.9414 -11.3936 36.8672 -25.5537 50.4229 -42.3359zM171.716 601.536c-21.1172 14.7139 -46.2607 19.8955 -65.0811 19.3369c-1.08301 -92.125 -1.57812 -181.966 -1.48535 -271.798
c33.7002 8.04883 76.459 28.1465 94.5352 63.2969c29.707 57.7695 23.9639 152.981 -27.9688 189.164zM218.319 119.28c6.54688 44.2646 0.09375 78.8145 -19.2012 102.698c-22.458 27.7959 -60.0322 39.8242 -93.7197 44.7598
c0.368164 -73.249 1.12988 -147.001 2.28027 -222.475c23.6973 -1.04883 51.9922 3.9668 73.9043 17.7207c20.9609 13.1572 32.9766 31.9023 36.7363 57.2959z" />
    <glyph glyph-name="C" unicode="C" horiz-adv-x="297" 
d="M259.514 176.762c20.9062 -2.22852 36.042 -20.9873 33.8086 -41.8887c-15.2852 -143.283 -96.2607 -158.04 -120.711 -159.152c-1.72559 -0.0722656 -3.44238 -0.114258 -5.14258 -0.114258c-71.1846 0 -118.795 68.5547 -141.566 203.896
c-15.2383 90.6104 -14.4727 200.63 2.10254 301.856c2.58887 15.8057 12.7646 71.3711 35.1045 122.805c27.3262 62.916 62.8701 94.8271 105.65 94.8398h0.0302734c57.1562 0 98.2275 -53.9844 109.884 -144.43c2.68945 -20.8506 -12.0332 -39.9297 -32.8838 -42.6191
c-20.8809 -2.70703 -39.9297 12.0322 -42.6191 32.8789c-7.02051 54.4834 -26.167 78.0449 -34.3848 78.041c-3.77246 0 -18.4658 -9.0166 -35.8486 -49.0391c-14.9717 -34.4697 -25.2109 -76.7256 -29.8037 -104.779
c-15.2812 -93.3047 -16.0635 -194.239 -2.15332 -276.928c14.6084 -86.8213 40.3145 -140.374 67.2637 -140.374c0.308594 0 0.613281 0.00390625 0.921875 0.0205078c23.6426 1.07031 42.666 36.8594 48.46 91.1777c2.2334 20.8975 20.9863 36.0176 41.8877 33.8096z" />
    <glyph glyph-name="D" unicode="D" horiz-adv-x="329" 
d="M247.672 68.3711c-31.8516 -45.9736 -76.9668 -96.0684 -150.3 -96.0684c-10.8818 0 -22.3857 1.10352 -34.5625 3.48438c-0.0126953 0.00390625 -0.0214844 0.0078125 -0.0341797 0.0078125c-3.77734 0.736328 -7.35938 2.03027 -10.6543 3.79785
c-0.680664 0.368164 -1.32324 0.782227 -1.97461 1.18359c-0.380859 0.237305 -0.774414 0.444336 -1.14648 0.694336c-0.680664 0.457031 -1.32324 0.956055 -1.9707 1.45117c-0.321289 0.245117 -0.655273 0.469727 -0.967773 0.723633
c-0.579102 0.469727 -1.11621 0.981445 -1.66211 1.48438c-0.355469 0.325195 -0.723633 0.629883 -1.06641 0.967773c-0.448242 0.444336 -0.858398 0.921875 -1.28516 1.38672c-0.401367 0.439453 -0.820312 0.866211 -1.20117 1.32715
c-0.330078 0.397461 -0.625977 0.816406 -0.938477 1.22656c-0.435547 0.566406 -0.875 1.12012 -1.27637 1.71191c-0.245117 0.359375 -0.457031 0.735352 -0.685547 1.09863c-0.422852 0.667969 -0.849609 1.33203 -1.23047 2.03027
c-0.194336 0.359375 -0.359375 0.735352 -0.545898 1.10352c-0.363281 0.714844 -0.731445 1.42969 -1.04883 2.17383c-0.186523 0.439453 -0.334961 0.891602 -0.508789 1.33594c-0.262695 0.685547 -0.538086 1.36621 -0.762695 2.07227
c-0.199219 0.62207 -0.347656 1.25684 -0.516602 1.8916c-0.143555 0.541016 -0.308594 1.07422 -0.426758 1.62793c-0.194336 0.892578 -0.325195 1.80566 -0.456055 2.71484c-0.0419922 0.3125 -0.109375 0.617188 -0.147461 0.93457
c-0.130859 1.10352 -0.194336 2.21973 -0.223633 3.34473c-0.00390625 0.139648 -0.0292969 0.275391 -0.0292969 0.418945v0.0800781c0 0.110352 -0.00390625 0.21582 -0.00390625 0.326172c-3.6377 219.121 -4.00977 422.424 -1.17578 639.756
c0.00390625 0.173828 0.0292969 0.338867 0.0332031 0.512695c0.0214844 0.794922 0.0810547 1.58203 0.15332 2.36914c0.046875 0.50293 0.0849609 1.00586 0.148438 1.50488c0.0888672 0.680664 0.211914 1.35352 0.338867 2.03027
c0.105469 0.575195 0.203125 1.15039 0.333984 1.7168c0.143555 0.613281 0.321289 1.20996 0.495117 1.81445c0.165039 0.583984 0.321289 1.16797 0.515625 1.73438c0.224609 0.664062 0.487305 1.31152 0.75 1.96289
c0.186523 0.460938 0.355469 0.925781 0.558594 1.37402c0.388672 0.875 0.824219 1.72559 1.28125 2.56738c0.101562 0.186523 0.19043 0.385742 0.295898 0.567383c3.69238 6.57715 9.34277 12.1348 16.6514 15.6533c42.666 20.5508 116.173 17.4678 165.322 -23.2236
c81.5723 -67.5391 95.4619 -221.282 97.6484 -284.249c4.40723 -126.924 -20.9141 -243.046 -67.7246 -310.623zM107.606 49.1553c24.0107 3.46777 47.8809 19.8447 77.4824 62.5703c36.6816 52.9482 57.9639 156.826 54.2207 264.634
c-3.69629 106.449 -31.2168 196.045 -70.1143 228.247c-18.5967 15.3906 -43.6348 19.3877 -62.5615 18.0342c-2.28809 -194.159 -1.97559 -378.087 0.972656 -573.485z" />
    <glyph glyph-name="E" unicode="E" horiz-adv-x="312" 
d="M294.328 134.874c-15.2852 -143.283 -96.2656 -158.048 -120.72 -159.164c-1.72559 -0.0722656 -3.44238 -0.114258 -5.14258 -0.114258c-71.1846 0 -118.795 68.5547 -141.566 203.896c-15.2383 90.6104 -14.4727 200.63 2.10254 301.856
c11.5928 70.8047 35.6328 217.611 128.066 217.649h0.350586c10.502 0 41.0088 -0.295898 68.0518 -27.6006c31.9746 -32.291 68.3174 -104.081 65.5684 -374.859c-0.00390625 -0.34668 -0.0507812 -0.680664 -0.0634766 -1.02344
c-0.0253906 -0.680664 -0.0634766 -1.35352 -0.123047 -2.02148c-0.0546875 -0.600586 -0.126953 -1.19727 -0.207031 -1.79395c-0.0927734 -0.660156 -0.194336 -1.32031 -0.321289 -1.97168c-0.114258 -0.59668 -0.245117 -1.17578 -0.384766 -1.75977
c-0.152344 -0.629883 -0.317383 -1.24707 -0.499023 -1.86426c-0.173828 -0.587891 -0.364258 -1.16309 -0.563477 -1.73828c-0.207031 -0.587891 -0.422852 -1.16699 -0.655273 -1.74219s-0.482422 -1.1416 -0.745117 -1.7041
c-0.253906 -0.545898 -0.516602 -1.08691 -0.795898 -1.62012c-0.291992 -0.553711 -0.59668 -1.09961 -0.914062 -1.63672c-0.304688 -0.511719 -0.613281 -1.01953 -0.938477 -1.51855c-0.337891 -0.520508 -0.693359 -1.02344 -1.05664 -1.52637
c-0.350586 -0.482422 -0.709961 -0.964844 -1.08203 -1.42969c-0.380859 -0.477539 -0.77832 -0.942383 -1.17969 -1.39941s-0.811523 -0.905273 -1.23438 -1.34473c-0.414062 -0.426758 -0.84082 -0.836914 -1.27637 -1.24707
c-0.452148 -0.422852 -0.913086 -0.841797 -1.38672 -1.24805c-0.444336 -0.375977 -0.905273 -0.739258 -1.36621 -1.09863c-0.499023 -0.388672 -1.00684 -0.769531 -1.52734 -1.13281c-0.477539 -0.333984 -0.963867 -0.646484 -1.4541 -0.955078
c-0.537109 -0.342773 -1.08301 -0.676758 -1.6416 -0.989258c-0.511719 -0.287109 -1.03223 -0.553711 -1.55664 -0.820312c-0.566406 -0.283203 -1.13281 -0.5625 -1.7168 -0.820312c-0.553711 -0.245117 -1.11621 -0.464844 -1.68262 -0.68457
c-0.579102 -0.224609 -1.16309 -0.444336 -1.75488 -0.638672c-0.604492 -0.199219 -1.21387 -0.373047 -1.82715 -0.541992c-0.587891 -0.15625 -1.17188 -0.3125 -1.76855 -0.448242c-0.642578 -0.143555 -1.29395 -0.261719 -1.94922 -0.37207
c-0.59668 -0.101562 -1.18848 -0.199219 -1.79297 -0.271484c-0.660156 -0.0849609 -1.33301 -0.131836 -2.00586 -0.178711c-0.401367 -0.0253906 -0.794922 -0.0927734 -1.20117 -0.105469c-15.9365 -0.583984 -49.7969 -3.16016 -82.541 -5.65137
c-34.9727 -2.66016 -60.4121 -4.55469 -76.7461 -5.39648c1.63281 -19.2354 3.9043 -37.917 6.89844 -55.7139c14.6084 -86.8213 40.3145 -140.374 67.2646 -140.374c0.308594 0 0.613281 0.00390625 0.921875 0.0205078c23.6426 1.07031 42.666 36.8594 48.46 91.1777
c2.2334 20.8975 20.9785 36.0176 41.8887 33.8096c20.9062 -2.22852 36.043 -20.9863 33.8145 -41.8877zM104.17 469.31c-7.80762 -47.6826 -11.8164 -97.2715 -12.0537 -145.39c17.2598 0.921875 46.959 3.18066 73.9336 5.23145
c17.3613 1.32422 34.2412 2.60547 48.9805 3.6416c-0.765625 217.37 -30.4268 271.676 -43.6602 285.045c-4.00977 4.04785 -6.80957 5.03711 -14.249 5.03711c-2.13574 0.0888672 -14.9209 -8.09961 -28.5059 -46.418
c-12.8232 -36.1611 -20.0977 -80.5996 -24.4453 -107.147z" />
    <glyph glyph-name="E" unicode="&#xcb;" horiz-adv-x="312" 
d="M294.328 134.874c-15.2852 -143.283 -96.2656 -158.048 -120.72 -159.164c-1.72559 -0.0722656 -3.44238 -0.114258 -5.14258 -0.114258c-71.1846 0 -118.795 68.5547 -141.566 203.896c-15.2383 90.6104 -14.4727 200.63 2.10254 301.856
c11.5928 70.8047 35.6328 217.611 128.066 217.649h0.350586c10.502 0 41.0088 -0.295898 68.0518 -27.6006c31.9746 -32.291 68.3174 -104.081 65.5684 -374.859c-0.00390625 -0.34668 -0.0507812 -0.680664 -0.0634766 -1.02344
c-0.0253906 -0.680664 -0.0634766 -1.35352 -0.123047 -2.02148c-0.0546875 -0.600586 -0.126953 -1.19727 -0.207031 -1.79395c-0.0927734 -0.660156 -0.194336 -1.32031 -0.321289 -1.97168c-0.114258 -0.59668 -0.245117 -1.17578 -0.384766 -1.75977
c-0.152344 -0.629883 -0.317383 -1.24707 -0.499023 -1.86426c-0.173828 -0.587891 -0.364258 -1.16309 -0.563477 -1.73828c-0.207031 -0.587891 -0.422852 -1.16699 -0.655273 -1.74219s-0.482422 -1.1416 -0.745117 -1.7041
c-0.253906 -0.545898 -0.516602 -1.08691 -0.795898 -1.62012c-0.291992 -0.553711 -0.59668 -1.09961 -0.914062 -1.63672c-0.304688 -0.511719 -0.613281 -1.01953 -0.938477 -1.51855c-0.337891 -0.520508 -0.693359 -1.02344 -1.05664 -1.52637
c-0.350586 -0.482422 -0.709961 -0.964844 -1.08203 -1.42969c-0.380859 -0.477539 -0.77832 -0.942383 -1.17969 -1.39941s-0.811523 -0.905273 -1.23438 -1.34473c-0.414062 -0.426758 -0.84082 -0.836914 -1.27637 -1.24707
c-0.452148 -0.422852 -0.913086 -0.841797 -1.38672 -1.24805c-0.444336 -0.375977 -0.905273 -0.739258 -1.36621 -1.09863c-0.499023 -0.388672 -1.00684 -0.769531 -1.52734 -1.13281c-0.477539 -0.333984 -0.963867 -0.646484 -1.4541 -0.955078
c-0.537109 -0.342773 -1.08301 -0.676758 -1.6416 -0.989258c-0.511719 -0.287109 -1.03223 -0.553711 -1.55664 -0.820312c-0.566406 -0.283203 -1.13281 -0.5625 -1.7168 -0.820312c-0.553711 -0.245117 -1.11621 -0.464844 -1.68262 -0.68457
c-0.579102 -0.224609 -1.16309 -0.444336 -1.75488 -0.638672c-0.604492 -0.199219 -1.21387 -0.373047 -1.82715 -0.541992c-0.587891 -0.15625 -1.17188 -0.3125 -1.76855 -0.448242c-0.642578 -0.143555 -1.29395 -0.261719 -1.94922 -0.37207
c-0.59668 -0.101562 -1.18848 -0.199219 -1.79297 -0.271484c-0.660156 -0.0849609 -1.33301 -0.131836 -2.00586 -0.178711c-0.401367 -0.0253906 -0.794922 -0.0927734 -1.20117 -0.105469c-15.9365 -0.583984 -49.7969 -3.16016 -82.541 -5.65137
c-34.9727 -2.66016 -60.4121 -4.55469 -76.7461 -5.39648c1.63281 -19.2354 3.9043 -37.917 6.89844 -55.7139c14.6084 -86.8213 40.3145 -140.374 67.2646 -140.374c0.308594 0 0.613281 0.00390625 0.921875 0.0205078c23.6426 1.07031 42.666 36.8594 48.46 91.1777
c2.2334 20.8975 20.9785 36.0176 41.8887 33.8096c20.9062 -2.22852 36.043 -20.9863 33.8145 -41.8877zM104.17 469.31c-7.80762 -47.6826 -11.8164 -97.2715 -12.0537 -145.39c17.2598 0.921875 46.959 3.18066 73.9336 5.23145
c17.3613 1.32422 34.2412 2.60547 48.9805 3.6416c-0.765625 217.37 -30.4268 271.676 -43.6602 285.045c-4.00977 4.04785 -6.80957 5.03711 -14.249 5.03711c-2.13574 0.0888672 -14.9209 -8.09961 -28.5059 -46.418
c-12.8232 -36.1611 -20.0977 -80.5996 -24.4453 -107.147z" />
    <glyph glyph-name="E" unicode="&#xca;" horiz-adv-x="312" 
d="M294.328 134.874c-15.2852 -143.283 -96.2656 -158.048 -120.72 -159.164c-1.72559 -0.0722656 -3.44238 -0.114258 -5.14258 -0.114258c-71.1846 0 -118.795 68.5547 -141.566 203.896c-15.2383 90.6104 -14.4727 200.63 2.10254 301.856
c11.5928 70.8047 35.6328 217.611 128.066 217.649h0.350586c10.502 0 41.0088 -0.295898 68.0518 -27.6006c31.9746 -32.291 68.3174 -104.081 65.5684 -374.859c-0.00390625 -0.34668 -0.0507812 -0.680664 -0.0634766 -1.02344
c-0.0253906 -0.680664 -0.0634766 -1.35352 -0.123047 -2.02148c-0.0546875 -0.600586 -0.126953 -1.19727 -0.207031 -1.79395c-0.0927734 -0.660156 -0.194336 -1.32031 -0.321289 -1.97168c-0.114258 -0.59668 -0.245117 -1.17578 -0.384766 -1.75977
c-0.152344 -0.629883 -0.317383 -1.24707 -0.499023 -1.86426c-0.173828 -0.587891 -0.364258 -1.16309 -0.563477 -1.73828c-0.207031 -0.587891 -0.422852 -1.16699 -0.655273 -1.74219s-0.482422 -1.1416 -0.745117 -1.7041
c-0.253906 -0.545898 -0.516602 -1.08691 -0.795898 -1.62012c-0.291992 -0.553711 -0.59668 -1.09961 -0.914062 -1.63672c-0.304688 -0.511719 -0.613281 -1.01953 -0.938477 -1.51855c-0.337891 -0.520508 -0.693359 -1.02344 -1.05664 -1.52637
c-0.350586 -0.482422 -0.709961 -0.964844 -1.08203 -1.42969c-0.380859 -0.477539 -0.77832 -0.942383 -1.17969 -1.39941s-0.811523 -0.905273 -1.23438 -1.34473c-0.414062 -0.426758 -0.84082 -0.836914 -1.27637 -1.24707
c-0.452148 -0.422852 -0.913086 -0.841797 -1.38672 -1.24805c-0.444336 -0.375977 -0.905273 -0.739258 -1.36621 -1.09863c-0.499023 -0.388672 -1.00684 -0.769531 -1.52734 -1.13281c-0.477539 -0.333984 -0.963867 -0.646484 -1.4541 -0.955078
c-0.537109 -0.342773 -1.08301 -0.676758 -1.6416 -0.989258c-0.511719 -0.287109 -1.03223 -0.553711 -1.55664 -0.820312c-0.566406 -0.283203 -1.13281 -0.5625 -1.7168 -0.820312c-0.553711 -0.245117 -1.11621 -0.464844 -1.68262 -0.68457
c-0.579102 -0.224609 -1.16309 -0.444336 -1.75488 -0.638672c-0.604492 -0.199219 -1.21387 -0.373047 -1.82715 -0.541992c-0.587891 -0.15625 -1.17188 -0.3125 -1.76855 -0.448242c-0.642578 -0.143555 -1.29395 -0.261719 -1.94922 -0.37207
c-0.59668 -0.101562 -1.18848 -0.199219 -1.79297 -0.271484c-0.660156 -0.0849609 -1.33301 -0.131836 -2.00586 -0.178711c-0.401367 -0.0253906 -0.794922 -0.0927734 -1.20117 -0.105469c-15.9365 -0.583984 -49.7969 -3.16016 -82.541 -5.65137
c-34.9727 -2.66016 -60.4121 -4.55469 -76.7461 -5.39648c1.63281 -19.2354 3.9043 -37.917 6.89844 -55.7139c14.6084 -86.8213 40.3145 -140.374 67.2646 -140.374c0.308594 0 0.613281 0.00390625 0.921875 0.0205078c23.6426 1.07031 42.666 36.8594 48.46 91.1777
c2.2334 20.8975 20.9785 36.0176 41.8887 33.8096c20.9062 -2.22852 36.043 -20.9863 33.8145 -41.8877zM104.17 469.31c-7.80762 -47.6826 -11.8164 -97.2715 -12.0537 -145.39c17.2598 0.921875 46.959 3.18066 73.9336 5.23145
c17.3613 1.32422 34.2412 2.60547 48.9805 3.6416c-0.765625 217.37 -30.4268 271.676 -43.6602 285.045c-4.00977 4.04785 -6.80957 5.03711 -14.249 5.03711c-2.13574 0.0888672 -14.9209 -8.09961 -28.5059 -46.418
c-12.8232 -36.1611 -20.0977 -80.5996 -24.4453 -107.147z" />
    <glyph glyph-name="E" unicode="&#xc9;" horiz-adv-x="312" 
d="M294.328 134.874c-15.2852 -143.283 -96.2656 -158.048 -120.72 -159.164c-1.72559 -0.0722656 -3.44238 -0.114258 -5.14258 -0.114258c-71.1846 0 -118.795 68.5547 -141.566 203.896c-15.2383 90.6104 -14.4727 200.63 2.10254 301.856
c11.5928 70.8047 35.6328 217.611 128.066 217.649h0.350586c10.502 0 41.0088 -0.295898 68.0518 -27.6006c31.9746 -32.291 68.3174 -104.081 65.5684 -374.859c-0.00390625 -0.34668 -0.0507812 -0.680664 -0.0634766 -1.02344
c-0.0253906 -0.680664 -0.0634766 -1.35352 -0.123047 -2.02148c-0.0546875 -0.600586 -0.126953 -1.19727 -0.207031 -1.79395c-0.0927734 -0.660156 -0.194336 -1.32031 -0.321289 -1.97168c-0.114258 -0.59668 -0.245117 -1.17578 -0.384766 -1.75977
c-0.152344 -0.629883 -0.317383 -1.24707 -0.499023 -1.86426c-0.173828 -0.587891 -0.364258 -1.16309 -0.563477 -1.73828c-0.207031 -0.587891 -0.422852 -1.16699 -0.655273 -1.74219s-0.482422 -1.1416 -0.745117 -1.7041
c-0.253906 -0.545898 -0.516602 -1.08691 -0.795898 -1.62012c-0.291992 -0.553711 -0.59668 -1.09961 -0.914062 -1.63672c-0.304688 -0.511719 -0.613281 -1.01953 -0.938477 -1.51855c-0.337891 -0.520508 -0.693359 -1.02344 -1.05664 -1.52637
c-0.350586 -0.482422 -0.709961 -0.964844 -1.08203 -1.42969c-0.380859 -0.477539 -0.77832 -0.942383 -1.17969 -1.39941s-0.811523 -0.905273 -1.23438 -1.34473c-0.414062 -0.426758 -0.84082 -0.836914 -1.27637 -1.24707
c-0.452148 -0.422852 -0.913086 -0.841797 -1.38672 -1.24805c-0.444336 -0.375977 -0.905273 -0.739258 -1.36621 -1.09863c-0.499023 -0.388672 -1.00684 -0.769531 -1.52734 -1.13281c-0.477539 -0.333984 -0.963867 -0.646484 -1.4541 -0.955078
c-0.537109 -0.342773 -1.08301 -0.676758 -1.6416 -0.989258c-0.511719 -0.287109 -1.03223 -0.553711 -1.55664 -0.820312c-0.566406 -0.283203 -1.13281 -0.5625 -1.7168 -0.820312c-0.553711 -0.245117 -1.11621 -0.464844 -1.68262 -0.68457
c-0.579102 -0.224609 -1.16309 -0.444336 -1.75488 -0.638672c-0.604492 -0.199219 -1.21387 -0.373047 -1.82715 -0.541992c-0.587891 -0.15625 -1.17188 -0.3125 -1.76855 -0.448242c-0.642578 -0.143555 -1.29395 -0.261719 -1.94922 -0.37207
c-0.59668 -0.101562 -1.18848 -0.199219 -1.79297 -0.271484c-0.660156 -0.0849609 -1.33301 -0.131836 -2.00586 -0.178711c-0.401367 -0.0253906 -0.794922 -0.0927734 -1.20117 -0.105469c-15.9365 -0.583984 -49.7969 -3.16016 -82.541 -5.65137
c-34.9727 -2.66016 -60.4121 -4.55469 -76.7461 -5.39648c1.63281 -19.2354 3.9043 -37.917 6.89844 -55.7139c14.6084 -86.8213 40.3145 -140.374 67.2646 -140.374c0.308594 0 0.613281 0.00390625 0.921875 0.0205078c23.6426 1.07031 42.666 36.8594 48.46 91.1777
c2.2334 20.8975 20.9785 36.0176 41.8887 33.8096c20.9062 -2.22852 36.043 -20.9863 33.8145 -41.8877zM104.17 469.31c-7.80762 -47.6826 -11.8164 -97.2715 -12.0537 -145.39c17.2598 0.921875 46.959 3.18066 73.9336 5.23145
c17.3613 1.32422 34.2412 2.60547 48.9805 3.6416c-0.765625 217.37 -30.4268 271.676 -43.6602 285.045c-4.00977 4.04785 -6.80957 5.03711 -14.249 5.03711c-2.13574 0.0888672 -14.9209 -8.09961 -28.5059 -46.418
c-12.8232 -36.1611 -20.0977 -80.5996 -24.4453 -107.147z" />
    <glyph glyph-name="F" unicode="F" horiz-adv-x="237" 
d="M180.2 281.871c-9.40625 -0.553711 -23.373 -0.735352 -38.417 -0.731445c-12.0664 0 -24.8008 0.118164 -36.4609 0.253906c0.375977 -90.6104 1.31934 -181.801 2.85059 -275.867c0.337891 -21.0205 -16.4229 -38.3398 -37.4434 -38.6826
c-0.207031 -0.00390625 -0.422852 -0.00390625 -0.629883 -0.00390625c-20.7324 0 -37.709 16.6387 -38.0469 37.4473c-3.6416 223.819 -4.01367 431.444 -1.17969 653.416c0 0.19043 0.0292969 0.376953 0.0332031 0.567383
c-0.0419922 0.710938 -0.109375 1.41309 -0.109375 2.13672c0 21.0244 17.04 38.0645 38.0645 38.0645c5.45996 0 14.7305 0.0849609 26.0312 0.182617c32.8369 0.279297 82.46 0.71875 107.621 -0.207031c21.0078 -0.769531 37.4141 -18.4277 36.6445 -39.4355
c-0.75293 -20.5342 -17.6367 -36.6689 -38.0137 -36.6689c-0.473633 0 -0.947266 0.00878906 -1.4209 0.0253906c-20.8936 0.774414 -61.7373 0.516602 -93.1406 0.253906c-1.01953 -89.79 -1.50195 -177.479 -1.44727 -265.095
c24.5859 -0.295898 55.9131 -0.52832 70.585 0.342773c20.9609 1.26855 39.0039 -14.7734 40.2393 -35.7598c1.23926 -20.9863 -14.7734 -39.0039 -35.7598 -40.2393z" />
    <glyph glyph-name="G" unicode="G" 
d="M286.649 107.277c-16.0635 -82.1309 -53.9062 -126.356 -112.462 -131.444c-2.8291 -0.25 -5.77246 -0.389648 -8.80469 -0.389648c-29.8252 0 -68.5449 13.4287 -98.9463 70.1621c-17.4121 32.4941 -31.0479 77.5459 -40.5303 133.898
c-15.2432 90.6064 -14.4775 200.626 2.09766 301.856c2.58887 15.8057 12.7646 71.3711 35.1045 122.805c27.3174 62.916 62.8652 94.8271 105.646 94.8438h0.0302734c57.1562 0 98.2275 -53.9844 109.888 -144.435c2.68945 -20.8506 -12.0332 -39.9297 -32.8838 -42.6152
c-20.8594 -2.70703 -39.9297 12.0322 -42.6191 32.8828c-7.02051 54.4785 -26.167 78.04 -34.3848 78.0361c-3.77246 0 -18.4658 -9.0127 -35.8486 -49.04c-14.9717 -34.4697 -25.2109 -76.7256 -29.8037 -104.779c-15.2812 -93.3086 -16.0684 -194.239 -2.15332 -276.928
c14.4395 -85.8486 39.8535 -140.53 65.0947 -140.53c0.50293 0 1.01074 0.0253906 1.51367 0.0673828c55.1934 4.80469 54.1865 155.828 53.4297 247.026c-12.2783 -0.219727 -24.7471 -0.671875 -42.5908 -1.61914
c-0.689453 -0.0380859 -1.37012 -0.0546875 -2.05078 -0.0546875c-20.0938 0 -36.8975 15.7373 -37.9756 36.0469c-1.11621 20.9902 15.002 38.9102 35.9922 40.0264c36.415 1.93262 52.4785 1.93262 84.4785 1.93262c21.0244 0 38.0645 -17.04 38.0645 -38.0645
c0 -0.207031 -0.0253906 -0.410156 -0.0292969 -0.617188c0 -0.207031 0.0292969 -0.410156 0.0292969 -0.617188c0 -11.2168 0.0976562 -22.9912 0.199219 -35.1377c0.520508 -62.8193 1.1123 -134.017 -10.4844 -193.312z" />
    <glyph glyph-name="H" unicode="H" horiz-adv-x="328" 
d="M70.1035 -37.0088c-20.7363 0 -37.7148 16.6426 -38.0527 37.4551c-3.6377 226.403 -4.01367 436.431 -1.17969 660.974c0.262695 20.8594 17.2568 37.5869 38.0527 37.5869c0.165039 0 0.326172 0 0.491211 -0.00390625
c21.0205 -0.262695 37.8496 -17.5186 37.583 -38.5391c-1.26074 -99.8945 -1.87793 -196.9 -1.86133 -293.767c18.2588 0.486328 40.3867 1.13379 61.1064 1.74316c19.9922 0.587891 39.2314 1.15039 54.4912 1.55664c-0.00390625 96.1006 0.618164 192.357 1.87012 291.427
c0.262695 20.8594 17.2568 37.5869 38.0527 37.5869c0.165039 0 0.326172 0 0.491211 -0.00390625c21.0205 -0.262695 37.8447 -17.5186 37.5781 -38.5391c-2.8252 -223.73 -2.44922 -433.068 1.17969 -658.795c0.337891 -21.0205 -16.4277 -38.3359 -37.4482 -38.6738
c-0.203125 -0.00390625 -0.415039 -0.00390625 -0.62207 -0.00390625c-20.7363 0 -37.7129 16.6387 -38.0469 37.4512c-1.61133 100.127 -2.58008 197.035 -2.91797 293.402c-14.8193 -0.397461 -33.2637 -0.938477 -52.3975 -1.50098
c-22.2002 -0.651367 -44.7559 -1.31543 -63.1963 -1.79785c0.34668 -94.8906 1.31055 -190.327 2.89648 -288.881c0.337891 -21.0205 -16.4277 -38.3359 -37.4482 -38.6738c-0.203125 -0.00390625 -0.415039 -0.00390625 -0.62207 -0.00390625z" />
    <glyph glyph-name="I" unicode="I" horiz-adv-x="137" 
d="M70.1074 -37.0088c-20.7363 0 -37.7148 16.6436 -38.0527 37.4561c-3.6416 226.454 -4.01758 436.481 -1.18359 660.974c0.262695 20.8594 17.2568 37.5869 38.0527 37.5869c0.165039 0 0.326172 0 0.491211 -0.00390625
c21.0205 -0.262695 37.8496 -17.5186 37.583 -38.5391c-2.8252 -223.752 -2.44922 -433.086 1.17969 -658.796c0.337891 -21.0205 -16.4277 -38.3359 -37.4482 -38.6738c-0.203125 -0.00390625 -0.415039 -0.00390625 -0.62207 -0.00390625z" />
    <glyph glyph-name="I" unicode="&#xcf;" horiz-adv-x="137" 
d="M70.1074 -37.0088c-20.7363 0 -37.7148 16.6436 -38.0527 37.4561c-3.6416 226.454 -4.01758 436.481 -1.18359 660.974c0.262695 20.8594 17.2568 37.5869 38.0527 37.5869c0.165039 0 0.326172 0 0.491211 -0.00390625
c21.0205 -0.262695 37.8496 -17.5186 37.583 -38.5391c-2.8252 -223.752 -2.44922 -433.086 1.17969 -658.796c0.337891 -21.0205 -16.4277 -38.3359 -37.4482 -38.6738c-0.203125 -0.00390625 -0.415039 -0.00390625 -0.62207 -0.00390625z" />
    <glyph glyph-name="I" unicode="&#xce;" horiz-adv-x="137" 
d="M70.1074 -37.0088c-20.7363 0 -37.7148 16.6436 -38.0527 37.4561c-3.6416 226.454 -4.01758 436.481 -1.18359 660.974c0.262695 20.8594 17.2568 37.5869 38.0527 37.5869c0.165039 0 0.326172 0 0.491211 -0.00390625
c21.0205 -0.262695 37.8496 -17.5186 37.583 -38.5391c-2.8252 -223.752 -2.44922 -433.086 1.17969 -658.796c0.337891 -21.0205 -16.4277 -38.3359 -37.4482 -38.6738c-0.203125 -0.00390625 -0.415039 -0.00390625 -0.62207 -0.00390625z" />
    <glyph glyph-name="I" unicode="&#xcd;" horiz-adv-x="137" 
d="M70.1074 -37.0088c-20.7363 0 -37.7148 16.6436 -38.0527 37.4561c-3.6416 226.454 -4.01758 436.481 -1.18359 660.974c0.262695 20.8594 17.2568 37.5869 38.0527 37.5869c0.165039 0 0.326172 0 0.491211 -0.00390625
c21.0205 -0.262695 37.8496 -17.5186 37.583 -38.5391c-2.8252 -223.752 -2.44922 -433.086 1.17969 -658.796c0.337891 -21.0205 -16.4277 -38.3359 -37.4482 -38.6738c-0.203125 -0.00390625 -0.415039 -0.00390625 -0.62207 -0.00390625z" />
    <glyph glyph-name="J" unicode="J" horiz-adv-x="265" 
d="M237.833 571.106c6.95312 -287.603 7.13281 -512.729 -57.4707 -577.321c-14.0879 -14.0801 -31.2764 -21.4902 -49.8096 -21.4902c-0.566406 0 -1.13281 0.00390625 -1.7041 0.0205078c-73.4053 1.79297 -91.8584 103.045 -99.7295 191.059
c-8.08203 90.3486 -6.32227 199.768 -4.90918 287.684c0.375977 23.2832 0.726562 45.2715 0.836914 64.1553c0.123047 20.9443 17.1426 37.8408 38.0615 37.8408h0.228516c21.0205 -0.126953 37.9639 -17.2646 37.8408 -38.2891
c-0.114258 -19.2734 -0.469727 -41.4521 -0.845703 -64.9336c-1.25195 -77.8164 -2.80859 -174.661 2.8125 -256.729c6.52637 -95.3047 20.3564 -129.212 27.3135 -140.555c8.16309 12.9629 24.8057 54.6904 31.3867 183.514
c5.38379 105.346 2.33008 231.687 -0.123047 333.205c-0.431641 17.8311 -0.850586 35.0996 -1.20117 51.4883c-10.8271 -0.321289 -23.3965 -0.617188 -37.8438 -0.938477c-21.6924 -0.482422 -48.6973 -1.08301 -55.2236 -1.83203
c-1.47168 -0.168945 -2.93945 -0.253906 -4.38574 -0.253906c-19.083 0 -35.5439 14.3164 -37.7686 33.7334c-2.39355 20.8848 12.5957 39.7607 33.4805 42.1543c9.5293 1.0957 29.8477 1.59082 62.2109 2.30957c25.1016 0.558594 63.0312 1.40039 71.0205 2.62305
c0.219727 0.0341797 0.435547 0.0380859 0.655273 0.0673828c0.698242 0.0976562 1.40039 0.161133 2.11133 0.21582c0.587891 0.046875 1.17578 0.0976562 1.75977 0.114258c0.266602 0.00878906 0.524414 0.046875 0.791016 0.0507812
c0.177734 0.00390625 0.364258 0.00390625 0.541992 0.00390625c0.363281 0 0.709961 -0.046875 1.06934 -0.0556641c0.524414 -0.0166016 1.04492 -0.0419922 1.56543 -0.0800781c0.803711 -0.0546875 1.59863 -0.130859 2.38965 -0.236328
c0.384766 -0.0546875 0.769531 -0.114258 1.1543 -0.177734c0.921875 -0.152344 1.83105 -0.333984 2.73145 -0.549805c0.228516 -0.0546875 0.457031 -0.114258 0.685547 -0.173828c1.03223 -0.270508 2.04688 -0.579102 3.04492 -0.929688
c0.0927734 -0.0341797 0.19043 -0.0683594 0.283203 -0.102539c1.10352 -0.401367 2.18164 -0.845703 3.23926 -1.34473c0.00390625 0 0.0078125 -0.00390625 0.0117188 -0.00390625c5.56543 -2.62207 10.3867 -6.54688 14.083 -11.3984
c4.4873 -5.8916 7.28711 -13.124 7.69727 -21.0205c0.00390625 -0.0380859 0.0078125 -0.0761719 0.0078125 -0.114258c0.0214844 -0.452148 0.0761719 -0.891602 0.0849609 -1.34375c0.375977 -26.582 1.12012 -57.5625 1.91504 -90.3652z" />
    <glyph glyph-name="K" unicode="K" horiz-adv-x="270" 
d="M70.1035 -37.0088c-20.7412 0 -37.7217 16.6475 -38.0557 37.4561c-3.6377 228.324 -4.01367 440.056 -1.17969 666.337c0.262695 20.8594 17.2568 37.5908 38.0527 37.5908h0.482422c21.0205 -0.257812 37.8496 -17.5137 37.5869 -38.5342
c-1.4375 -114.946 -2.04199 -226.129 -1.81348 -337.653c32.5449 49.3271 66.9424 146.747 67.3438 338.207c0.046875 20.9902 17.083 37.9844 38.0654 37.9844h0.0839844c21.0205 -0.046875 38.0273 -17.1211 37.9854 -38.1455
c-0.464844 -224.086 -45.7998 -341.646 -96.6709 -402.973c67.082 -40.3525 103.243 -127.245 103.243 -251.944c0 -21.0244 -17.04 -38.0645 -38.0645 -38.0645s-38.0645 17.04 -38.0645 38.0645c0 79.4199 -16.1396 138.513 -46.6758 170.889
c-8.9873 9.5293 -18.1738 15.7129 -26.6279 19.8535c0.507812 -65.877 1.29492 -132.389 2.37793 -200.394c0.337891 -21.0205 -16.4316 -38.3359 -37.4521 -38.6699c-0.203125 -0.00390625 -0.410156 -0.00390625 -0.617188 -0.00390625z" />
    <glyph glyph-name="L" unicode="L" horiz-adv-x="206" 
d="M32.2002 5.2002c-0.0546875 0.740234 -0.139648 1.47363 -0.152344 2.22266c-3.6377 225.93 -4.01367 435.449 -1.17969 659.37c0.262695 20.8555 17.2568 37.583 38.0527 37.583c0.165039 0 0.330078 0 0.491211 -0.00878906
c21.0205 -0.262695 37.8447 -17.5186 37.5781 -38.543c-2.68945 -212.857 -2.46484 -412.7 0.707031 -626.103c24.5479 -0.422852 54.5684 -0.883789 66.3477 -0.40625c21.0156 0.756836 38.7158 -15.501 39.5615 -36.5088
c0.845703 -20.999 -15.501 -38.7158 -36.5039 -39.5615c-4.54688 -0.181641 -10.8701 -0.257812 -18.2461 -0.257812c-17.1543 0 -40.0098 0.397461 -59.5322 0.735352c-12.8574 0.224609 -23.7393 0.418945 -29.2119 0.418945c-21.0244 0 -38.0645 17.04 -38.0645 38.0645
c0 1.01074 0.0761719 2.00488 0.152344 2.99414z" />
    <glyph glyph-name="M" unicode="M" horiz-adv-x="394" 
d="M362.969 661.962c-2.57129 -218.922 0.328125 -410.825 3.38184 -613.988l0.638672 -42.3105c0.3125 -21.0205 -16.4697 -38.3184 -37.4902 -38.6309c-0.194336 -0.00390625 -0.388672 -0.00390625 -0.583008 -0.00390625c-20.7578 0 -37.7344 16.668 -38.0469 37.4932
l-0.634766 42.2979c-2.00098 132.511 -3.9209 260.285 -4.31445 393.93c-31.0859 -89.2236 -58.4082 -169.27 -58.916 -170.763c-5.24902 -15.3945 -19.6924 -25.748 -35.9541 -25.7773h-0.0722656c-16.2324 0 -30.6846 10.2939 -35.9795 25.6426
c-1.81055 5.24902 -23.9434 69.4346 -49.8311 147.581c-0.253906 -135.895 0.671875 -270.63 2.78223 -411.773c0.3125 -21.0205 -16.4697 -38.3184 -37.4902 -38.6309c-0.194336 -0.00390625 -0.388672 -0.00390625 -0.583008 -0.00390625
c-20.7578 0 -37.7344 16.668 -38.0469 37.4932c-3.375 225.672 -3.72559 435.002 -1.09473 658.767c0.25 20.8721 17.2441 37.6201 38.0566 37.6201c0.152344 0 0.304688 0 0.457031 -0.00390625c19.0869 -0.219727 34.6807 -14.4727 37.21 -32.8281
c19.3662 -70.0771 56.7373 -184.279 84.7617 -267.975c31.2129 90.3105 74.7422 214.917 98.1396 275.935c0.0722656 0.194336 0.169922 0.368164 0.246094 0.558594c0.300781 0.744141 0.625977 1.47168 0.96875 2.19043
c0.21582 0.452148 0.431641 0.900391 0.660156 1.33984c0.325195 0.617188 0.675781 1.21387 1.03125 1.81055c0.304688 0.507812 0.609375 1.01953 0.93457 1.50977c0.317383 0.477539 0.660156 0.938477 0.998047 1.40332
c0.401367 0.553711 0.807617 1.10352 1.23926 1.63184c0.317383 0.384766 0.651367 0.75293 0.981445 1.125c0.486328 0.545898 0.96875 1.0918 1.48047 1.60742c0.355469 0.355469 0.727539 0.685547 1.09082 1.02832c0.515625 0.482422 1.02734 0.959961 1.56445 1.4082
c0.448242 0.37207 0.917969 0.714844 1.37891 1.06543c0.486328 0.368164 0.963867 0.740234 1.4668 1.08301c0.583984 0.401367 1.18848 0.764648 1.79297 1.13281c0.410156 0.245117 0.811523 0.507812 1.23047 0.740234
c0.710938 0.393555 1.44727 0.749023 2.18359 1.09961c0.34668 0.165039 0.689453 0.342773 1.04004 0.499023c0.774414 0.342773 1.57422 0.638672 2.37402 0.925781c0.350586 0.126953 0.693359 0.266602 1.04883 0.380859
c0.756836 0.25 1.53516 0.457031 2.31348 0.65625c0.435547 0.114258 0.867188 0.237305 1.30664 0.334961c0.676758 0.148438 1.37012 0.258789 2.05957 0.373047c0.571289 0.0927734 1.14258 0.194336 1.71777 0.261719
c0.579102 0.0634766 1.16699 0.101562 1.75488 0.143555c0.702148 0.0507812 1.40039 0.0976562 2.10645 0.106445c0.186523 0.00390625 0.373047 0.0292969 0.563477 0.0292969c0.152344 0 0.304688 0 0.457031 -0.00390625
c0.283203 -0.00390625 0.558594 -0.0419922 0.841797 -0.0507812c0.731445 -0.0253906 1.45898 -0.0673828 2.19043 -0.134766c0.591797 -0.0546875 1.17969 -0.12207 1.76367 -0.202148c0.613281 -0.0849609 1.22266 -0.186523 1.83594 -0.300781
c0.702148 -0.130859 1.3916 -0.279297 2.08105 -0.453125c0.490234 -0.123047 0.980469 -0.253906 1.4707 -0.397461c0.77832 -0.224609 1.54004 -0.474609 2.29297 -0.745117c0.237305 -0.0849609 0.474609 -0.144531 0.711914 -0.233398
c0.203125 -0.0800781 0.393555 -0.181641 0.59668 -0.266602c0.744141 -0.300781 1.46777 -0.625977 2.18652 -0.96875c0.457031 -0.219727 0.90918 -0.435547 1.35352 -0.672852c0.617188 -0.325195 1.21777 -0.671875 1.81445 -1.03125
c0.511719 -0.308594 1.02344 -0.617188 1.51855 -0.947266c0.482422 -0.321289 0.952148 -0.65918 1.41699 -1.00586c0.553711 -0.40625 1.10352 -0.816406 1.63184 -1.25195c0.388672 -0.321289 0.760742 -0.655273 1.13672 -0.993164
c0.545898 -0.486328 1.08691 -0.972656 1.59863 -1.48828c0.355469 -0.355469 0.693359 -0.727539 1.03125 -1.0957c0.477539 -0.520508 0.955078 -1.04102 1.40332 -1.58691c0.359375 -0.431641 0.693359 -0.883789 1.03125 -1.33203
c0.380859 -0.50293 0.761719 -1.00195 1.11719 -1.52637c0.368164 -0.541016 0.706055 -1.09961 1.04395 -1.6582c0.283203 -0.464844 0.566406 -0.925781 0.829102 -1.39941c0.34668 -0.634766 0.664062 -1.28613 0.976562 -1.9375
c0.207031 -0.435547 0.422852 -0.871094 0.613281 -1.31055c0.295898 -0.685547 0.558594 -1.38379 0.8125 -2.08594c0.168945 -0.460938 0.337891 -0.913086 0.486328 -1.37793c0.211914 -0.667969 0.393555 -1.34082 0.571289 -2.02148
c0.139648 -0.549805 0.283203 -1.09961 0.401367 -1.65332c0.126953 -0.591797 0.228516 -1.19238 0.326172 -1.79688c0.114258 -0.672852 0.211914 -1.34961 0.288086 -2.03027c0.0546875 -0.507812 0.0927734 -1.01562 0.126953 -1.53125
c0.0546875 -0.787109 0.0888672 -1.57422 0.0927734 -2.36914c0 -0.219727 0.0292969 -0.435547 0.0253906 -0.655273z" />
    <glyph glyph-name="N" unicode="N" horiz-adv-x="344" 
d="M277.428 -37.0088c-10.2646 0 -19.5938 4.08496 -26.458 10.7207c-6.35645 4.64844 -11.334 11.3018 -13.8506 19.4014c-23.4941 75.5791 -46.3242 146.303 -68.4014 214.7c-21.4766 66.5322 -42.3828 131.331 -63.5635 199.289
c-0.177734 -133.742 0.655273 -266.541 2.52051 -405.527c0.283203 -21.0244 -16.5283 -38.293 -37.5488 -38.5723c-0.173828 -0.00390625 -0.347656 -0.00390625 -0.521484 -0.00390625c-20.7871 0 -37.7725 16.7061 -38.0518 37.5527
c-3.04492 227.055 -3.3623 437.632 -0.989258 662.699c0.224609 20.8809 17.2227 37.6631 38.0566 37.6631c0.139648 0 0.275391 0 0.411133 -0.00390625c17.7383 -0.186523 32.4736 -12.498 36.5215 -28.9678c0.638672 -1.49707 1.22266 -3.03223 1.6748 -4.64355
c45.7539 -162.265 86.7793 -289.972 129.906 -423.6c-0.672852 139.304 -0.253906 276.51 1.25195 419.548c0.224609 20.8809 17.2227 37.6631 38.0566 37.6631c0.139648 0 0.275391 0 0.411133 -0.00390625c21.0205 -0.219727 37.8828 -17.4414 37.6631 -38.4619
c-2.36816 -224.416 -2.05078 -434.414 0.981445 -660.877c0.283203 -21.0244 -16.5283 -38.293 -37.5488 -38.5723c-0.173828 -0.00390625 -0.347656 -0.00390625 -0.521484 -0.00390625z" />
    <glyph glyph-name="O" unicode="O" horiz-adv-x="329" 
d="M53.2188 78.8467c-19.0449 44.8105 -31.6865 102.208 -35.5986 161.605c-15.8691 240.852 41.8916 440.073 131.5 453.553c26.0449 3.89941 51.1045 -3.3877 72.4756 -21.1172c80.1641 -66.5029 89.9258 -272.703 90.7764 -295.994
c3.67969 -100.905 -7.13086 -200.127 -29.6611 -272.217c-2.58008 -8.25977 -5.31641 -16.2451 -8.13281 -23.7393c-10.3877 -27.6436 -22.3105 -49.7891 -35.4346 -65.8223c-20.1025 -24.5732 -45.5381 -37.4902 -71.8955 -37.4902
c-11.4238 0 -23.0166 2.42383 -34.4355 7.37598c-31.8477 13.8047 -59.373 46.2568 -79.5938 93.8457zM113.563 519.884c-13.9023 -52.5586 -28.6475 -142.832 -19.9727 -274.421c3.3623 -51.0957 13.9102 -99.6914 29.6982 -136.843
c14.0244 -33.002 29.7617 -49.4209 39.8105 -53.7773c2.99023 -1.29004 7.51562 -3.25684 17.125 8.47949c5.40527 6.60645 13.792 19.6621 23.0879 44.3955c2.31348 6.1582 4.58008 12.7734 6.73242 19.667c20.0596 64.1807 29.6221 154.114 26.2471 246.733
c-3.46777 95.123 -28.0957 210.971 -63.3057 240.179c-5.23633 4.33984 -8.69629 4.80078 -11.4619 4.55957c-6.2168 -3.57422 -29.2246 -28.126 -47.9609 -98.9727z" />
    <glyph glyph-name="O" unicode="&#xd6;" horiz-adv-x="329" 
d="M53.2188 78.8467c-19.0449 44.8105 -31.6865 102.208 -35.5986 161.605c-15.8691 240.852 41.8916 440.073 131.5 453.553c26.0449 3.89941 51.1045 -3.3877 72.4756 -21.1172c80.1641 -66.5029 89.9258 -272.703 90.7764 -295.994
c3.67969 -100.905 -7.13086 -200.127 -29.6611 -272.217c-2.58008 -8.25977 -5.31641 -16.2451 -8.13281 -23.7393c-10.3877 -27.6436 -22.3105 -49.7891 -35.4346 -65.8223c-20.1025 -24.5732 -45.5381 -37.4902 -71.8955 -37.4902
c-11.4238 0 -23.0166 2.42383 -34.4355 7.37598c-31.8477 13.8047 -59.373 46.2568 -79.5938 93.8457zM113.563 519.884c-13.9023 -52.5586 -28.6475 -142.832 -19.9727 -274.421c3.3623 -51.0957 13.9102 -99.6914 29.6982 -136.843
c14.0244 -33.002 29.7617 -49.4209 39.8105 -53.7773c2.99023 -1.29004 7.51562 -3.25684 17.125 8.47949c5.40527 6.60645 13.792 19.6621 23.0879 44.3955c2.31348 6.1582 4.58008 12.7734 6.73242 19.667c20.0596 64.1807 29.6221 154.114 26.2471 246.733
c-3.46777 95.123 -28.0957 210.971 -63.3057 240.179c-5.23633 4.33984 -8.69629 4.80078 -11.4619 4.55957c-6.2168 -3.57422 -29.2246 -28.126 -47.9609 -98.9727z" />
    <glyph glyph-name="O" unicode="&#xd5;" horiz-adv-x="329" 
d="M53.2188 78.8467c-19.0449 44.8105 -31.6865 102.208 -35.5986 161.605c-15.8691 240.852 41.8916 440.073 131.5 453.553c26.0449 3.89941 51.1045 -3.3877 72.4756 -21.1172c80.1641 -66.5029 89.9258 -272.703 90.7764 -295.994
c3.67969 -100.905 -7.13086 -200.127 -29.6611 -272.217c-2.58008 -8.25977 -5.31641 -16.2451 -8.13281 -23.7393c-10.3877 -27.6436 -22.3105 -49.7891 -35.4346 -65.8223c-20.1025 -24.5732 -45.5381 -37.4902 -71.8955 -37.4902
c-11.4238 0 -23.0166 2.42383 -34.4355 7.37598c-31.8477 13.8047 -59.373 46.2568 -79.5938 93.8457zM113.563 519.884c-13.9023 -52.5586 -28.6475 -142.832 -19.9727 -274.421c3.3623 -51.0957 13.9102 -99.6914 29.6982 -136.843
c14.0244 -33.002 29.7617 -49.4209 39.8105 -53.7773c2.99023 -1.29004 7.51562 -3.25684 17.125 8.47949c5.40527 6.60645 13.792 19.6621 23.0879 44.3955c2.31348 6.1582 4.58008 12.7734 6.73242 19.667c20.0596 64.1807 29.6221 154.114 26.2471 246.733
c-3.46777 95.123 -28.0957 210.971 -63.3057 240.179c-5.23633 4.33984 -8.69629 4.80078 -11.4619 4.55957c-6.2168 -3.57422 -29.2246 -28.126 -47.9609 -98.9727z" />
    <glyph glyph-name="O" unicode="&#xd4;" horiz-adv-x="329" 
d="M53.2188 78.8467c-19.0449 44.8105 -31.6865 102.208 -35.5986 161.605c-15.8691 240.852 41.8916 440.073 131.5 453.553c26.0449 3.89941 51.1045 -3.3877 72.4756 -21.1172c80.1641 -66.5029 89.9258 -272.703 90.7764 -295.994
c3.67969 -100.905 -7.13086 -200.127 -29.6611 -272.217c-2.58008 -8.25977 -5.31641 -16.2451 -8.13281 -23.7393c-10.3877 -27.6436 -22.3105 -49.7891 -35.4346 -65.8223c-20.1025 -24.5732 -45.5381 -37.4902 -71.8955 -37.4902
c-11.4238 0 -23.0166 2.42383 -34.4355 7.37598c-31.8477 13.8047 -59.373 46.2568 -79.5938 93.8457zM113.563 519.884c-13.9023 -52.5586 -28.6475 -142.832 -19.9727 -274.421c3.3623 -51.0957 13.9102 -99.6914 29.6982 -136.843
c14.0244 -33.002 29.7617 -49.4209 39.8105 -53.7773c2.99023 -1.29004 7.51562 -3.25684 17.125 8.47949c5.40527 6.60645 13.792 19.6621 23.0879 44.3955c2.31348 6.1582 4.58008 12.7734 6.73242 19.667c20.0596 64.1807 29.6221 154.114 26.2471 246.733
c-3.46777 95.123 -28.0957 210.971 -63.3057 240.179c-5.23633 4.33984 -8.69629 4.80078 -11.4619 4.55957c-6.2168 -3.57422 -29.2246 -28.126 -47.9609 -98.9727z" />
    <glyph glyph-name="O" unicode="&#xd3;" horiz-adv-x="329" 
d="M53.2188 78.8467c-19.0449 44.8105 -31.6865 102.208 -35.5986 161.605c-15.8691 240.852 41.8916 440.073 131.5 453.553c26.0449 3.89941 51.1045 -3.3877 72.4756 -21.1172c80.1641 -66.5029 89.9258 -272.703 90.7764 -295.994
c3.67969 -100.905 -7.13086 -200.127 -29.6611 -272.217c-2.58008 -8.25977 -5.31641 -16.2451 -8.13281 -23.7393c-10.3877 -27.6436 -22.3105 -49.7891 -35.4346 -65.8223c-20.1025 -24.5732 -45.5381 -37.4902 -71.8955 -37.4902
c-11.4238 0 -23.0166 2.42383 -34.4355 7.37598c-31.8477 13.8047 -59.373 46.2568 -79.5938 93.8457zM113.563 519.884c-13.9023 -52.5586 -28.6475 -142.832 -19.9727 -274.421c3.3623 -51.0957 13.9102 -99.6914 29.6982 -136.843
c14.0244 -33.002 29.7617 -49.4209 39.8105 -53.7773c2.99023 -1.29004 7.51562 -3.25684 17.125 8.47949c5.40527 6.60645 13.792 19.6621 23.0879 44.3955c2.31348 6.1582 4.58008 12.7734 6.73242 19.667c20.0596 64.1807 29.6221 154.114 26.2471 246.733
c-3.46777 95.123 -28.0957 210.971 -63.3057 240.179c-5.23633 4.33984 -8.69629 4.80078 -11.4619 4.55957c-6.2168 -3.57422 -29.2246 -28.126 -47.9609 -98.9727z" />
    <glyph glyph-name="P" unicode="P" horiz-adv-x="292" 
d="M32.0547 13.1309c-3.6416 217.378 -4.0166 418.991 -1.17871 634.483c0.00390625 0.232422 0.0332031 0.452148 0.0419922 0.680664c-0.702148 16.4229 9.35156 32.0332 25.6982 37.624c34.6094 11.8428 108.298 17.4805 158.691 -17.7969
c41.5371 -29.0811 67.9033 -81.1572 74.2471 -146.628c7.27441 -75.0713 -13.8047 -152.456 -52.4531 -192.563c-39.7559 -41.249 -93.6299 -52.4531 -131.724 -57.8711c0.410156 -84.292 1.33594 -169.188 2.79883 -256.661
c0.350586 -21.0156 -16.4023 -38.3389 -37.4229 -38.6943c-0.21582 -0.00390625 -0.435547 -0.00390625 -0.651367 -0.00390625c-20.7285 0 -37.7012 16.626 -38.0479 37.4307zM171.643 605.76c-16.1309 11.292 -42.7969 14.4619 -64.9971 12.8125
c-1.09082 -91.6895 -1.59375 -181.095 -1.50098 -270.496c26.5352 4.50391 57.0752 12.874 77.1309 33.6826c22.9609 23.8281 36.5039 80.7471 31.501 132.396c-4.09863 42.3447 -19.46 75.7314 -42.1338 91.6045z" />
    <glyph glyph-name="Q" unicode="Q" horiz-adv-x="330" 
d="M274.425 100.011c0 0 -0.00585938 0 -0.00195312 0c-7.50684 -19.2734 -15.8135 -35.7432 -24.7842 -49.2988c17.9922 -3.33691 31.4629 -19.248 31.0869 -38.1406c-0.418945 -21.0156 -17.6963 -37.8145 -38.8184 -37.2939
c-48.8965 0.976562 -97.2344 -1.27734 -143.716 -6.7041c-1.50098 -0.173828 -2.98926 -0.262695 -4.46094 -0.262695c-19.0488 0 -35.4971 14.2744 -37.7598 33.6582c-2.30469 19.7471 10.9502 37.7051 30.0586 41.6592
c-12.2227 14.7314 -23.2021 32.9092 -32.6123 54.2803c-19.1426 43.4912 -31.8516 99.1797 -35.7852 156.801c-15.9238 233.336 41.9219 426.319 131.687 439.346c26.4424 3.85254 51.8271 -3.65039 73.4521 -21.6553c79.0938 -65.8682 88.7666 -263.402 89.6084 -285.708
c3.68848 -97.6992 -7.16406 -193.791 -29.7783 -263.647c-2.58887 -7.99316 -5.3418 -15.7461 -8.17578 -23.0332zM161.143 618.826c-19.6201 -9.5166 -83.8848 -119.733 -67.5635 -358.931c3.29883 -48.3418 14.0586 -96.2012 29.5127 -131.313
c17.4883 -39.7227 34.7021 -49.4463 39.5615 -51.4805c3.26465 -1.35352 8.19629 -3.43457 18 8.13281c5.3291 6.28906 13.6143 18.7441 22.8213 42.3906c2.30469 5.91309 4.55469 12.2568 6.69043 18.8633c19.9756 61.7021 29.5 148.202 26.1338 237.328
c-3.41699 90.458 -27.6348 201.256 -62.252 230.083c-5.86621 4.88477 -9.75293 5.25684 -12.9043 4.92676z" />
    <glyph glyph-name="R" unicode="R" horiz-adv-x="303" 
d="M289.61 523.699c7.11816 -73.7061 -14.0898 -149.661 -52.7676 -189.02c-16.2793 -16.5537 -34.9229 -28.1172 -53.8701 -36.4238c46.2275 -43.3428 91.4824 -121.819 91.2324 -282.989c-0.0341797 -20.999 -17.0703 -38.0059 -38.0654 -38.0059h-0.0644531
c-21.0205 0.0341797 -38.04 17.0996 -38.0059 38.124c0.253906 163.767 -50.5703 218.896 -92.6445 246.726c0.426758 -81.3564 1.33984 -163.339 2.75293 -247.72c0.350586 -21.0156 -16.4023 -38.3389 -37.4229 -38.6943
c-0.21582 -0.00390625 -0.435547 -0.00390625 -0.651367 -0.00390625c-20.7285 0 -37.7012 16.626 -38.0479 37.4307c-3.64551 217.383 -4.01758 418.998 -1.18359 634.494c0.00390625 0.275391 0.0419922 0.541992 0.0507812 0.8125
c-0.706055 16.5156 9.45312 32.1855 25.9102 37.709c34.4863 11.5586 107.926 17.0605 158.175 -17.4043c41.8496 -28.7178 68.3428 -80.2236 74.6025 -145.035zM182.55 388.067c22.6738 23.0586 36.1221 78.2197 31.2793 128.317
c-3.99707 41.3975 -19.2656 74.0488 -41.8926 89.5752c-16.1982 11.1152 -42.9785 14.2324 -65.2881 12.6172c-1.06152 -89.3203 -1.56445 -176.479 -1.50488 -263.575c26.6279 4.41504 57.2998 12.6162 77.4062 33.0654z" />
    <glyph glyph-name="S" unicode="S" horiz-adv-x="286" 
d="M175.021 338.388c44.6113 -50.8545 95.1719 -108.498 103.575 -199.083c2.7832 -29.9268 -2.07227 -62.167 -13.665 -90.7832c-21.7852 -53.7637 -68.334 -86.1104 -118.474 -86.1143c-12.1768 0 -24.5645 1.91211 -36.8633 5.88379
c-37.6035 12.1465 -97.9355 68.5791 -85.543 203.04c1.92871 20.9316 20.5039 36.3516 41.3975 34.4102c20.9316 -1.92871 36.3389 -20.4619 34.4102 -41.3975c-9.37207 -101.751 32.9561 -123.52 33.3877 -123.693c24.4248 -7.8916 49.0908 6.73828 61.1318 36.4668
c7.00391 17.2812 10.0703 37.3877 8.4209 55.1514c-6.12793 65.9912 -42.6826 107.663 -85.0107 155.916c-57.5283 65.5811 -122.729 139.904 -98.6504 279.796c6.21289 36.0811 27.791 85.2012 61.998 113.602c26.9746 22.3906 61.2373 28.4766 91.6426 16.2617
c29.5762 -11.8848 67.0996 -45.792 77.8594 -139.837c2.38965 -20.8887 -12.6074 -39.7598 -33.4922 -42.1455s-39.7559 12.6035 -42.1455 33.4883c-6.2002 54.2422 -22.1533 74.4541 -30.5996 77.8506c-5.99316 2.41113 -12.7178 -2.60059 -14.6338 -4.19531
c-15.6357 -12.9844 -31.2764 -42.8271 -35.5986 -67.9414c-17.9199 -104.081 27.8545 -156.259 80.8525 -216.676z" />
    <glyph glyph-name="T" unicode="T" horiz-adv-x="266" 
d="M232.378 692.308c20.8633 2.2373 39.6602 -12.7656 41.9697 -33.667c2.30469 -20.8975 -12.8115 -39.71 -33.7051 -42.0146c-5.20215 -0.571289 -15.6191 -0.837891 -31.2764 -0.837891c-10.5605 0 -23.5283 0.123047 -38.8721 0.342773
c-2.45312 -207.799 -1.9707 -403.84 1.50586 -614.451c0.350586 -21.0156 -16.4102 -38.3389 -37.4307 -38.6855c-0.211914 -0.00390625 -0.427734 -0.00390625 -0.639648 -0.00390625c-20.7324 0 -37.7051 16.6299 -38.0479 37.4385
c-3.49316 211.524 -3.97559 408.411 -1.50586 617.141c-7.83691 0.165039 -15.957 0.34668 -24.4111 0.533203c-19.2314 0.422852 -35.8447 0.794922 -39.9004 0.794922c-21.0244 0 -38.0645 17.04 -38.0645 38.0645s17.04 38.0645 38.0645 38.0645
c4.68652 0 17.4893 -0.279297 41.5967 -0.816406c43.8125 -0.976562 146.409 -3.26465 160.717 -1.90234z" />
    <glyph glyph-name="U" unicode="U" horiz-adv-x="344" 
d="M322.512 666.56c6.4707 -392.395 -18.9111 -588.424 -84.873 -655.489c-22.2168 -22.585 -45.834 -27.3262 -61.7363 -27.3262c-27.3857 0 -52.6904 11.4658 -73.1777 33.1582c-69.8613 73.9678 -95.1152 289.493 -75.0557 640.592l0.266602 4.66895
c1.18848 20.9902 19.2607 37.0361 40.1582 35.8477c20.9902 -1.18848 37.041 -19.168 35.8486 -40.1582l-0.266602 -4.69922c-26.3154 -460.56 34.9814 -563.423 54.3945 -583.978c7.78613 -8.24316 13.6182 -9.30078 17.8311 -9.30078
c0.731445 0 2.95605 0 7.46484 4.58496c12.5693 12.7812 43.2793 62.8613 56.9355 251.387c8.55566 118.19 7.75195 248.845 6.08984 349.462c-0.342773 21.0156 16.4141 38.3389 37.4346 38.6855c21.041 0.333984 38.335 -16.4102 38.6855 -37.4346z" />
    <glyph glyph-name="U" unicode="&#xdc;" horiz-adv-x="344" 
d="M322.512 666.56c6.4707 -392.395 -18.9111 -588.424 -84.873 -655.489c-22.2168 -22.585 -45.834 -27.3262 -61.7363 -27.3262c-27.3857 0 -52.6904 11.4658 -73.1777 33.1582c-69.8613 73.9678 -95.1152 289.493 -75.0557 640.592l0.266602 4.66895
c1.18848 20.9902 19.2607 37.0361 40.1582 35.8477c20.9902 -1.18848 37.041 -19.168 35.8486 -40.1582l-0.266602 -4.69922c-26.3154 -460.56 34.9814 -563.423 54.3945 -583.978c7.78613 -8.24316 13.6182 -9.30078 17.8311 -9.30078
c0.731445 0 2.95605 0 7.46484 4.58496c12.5693 12.7812 43.2793 62.8613 56.9355 251.387c8.55566 118.19 7.75195 248.845 6.08984 349.462c-0.342773 21.0156 16.4141 38.3389 37.4346 38.6855c21.041 0.333984 38.335 -16.4102 38.6855 -37.4346z" />
    <glyph glyph-name="U" unicode="&#xdb;" horiz-adv-x="344" 
d="M322.512 666.56c6.4707 -392.395 -18.9111 -588.424 -84.873 -655.489c-22.2168 -22.585 -45.834 -27.3262 -61.7363 -27.3262c-27.3857 0 -52.6904 11.4658 -73.1777 33.1582c-69.8613 73.9678 -95.1152 289.493 -75.0557 640.592l0.266602 4.66895
c1.18848 20.9902 19.2607 37.0361 40.1582 35.8477c20.9902 -1.18848 37.041 -19.168 35.8486 -40.1582l-0.266602 -4.69922c-26.3154 -460.56 34.9814 -563.423 54.3945 -583.978c7.78613 -8.24316 13.6182 -9.30078 17.8311 -9.30078
c0.731445 0 2.95605 0 7.46484 4.58496c12.5693 12.7812 43.2793 62.8613 56.9355 251.387c8.55566 118.19 7.75195 248.845 6.08984 349.462c-0.342773 21.0156 16.4141 38.3389 37.4346 38.6855c21.041 0.333984 38.335 -16.4102 38.6855 -37.4346z" />
    <glyph glyph-name="U" unicode="&#xda;" horiz-adv-x="344" 
d="M322.512 666.56c6.4707 -392.395 -18.9111 -588.424 -84.873 -655.489c-22.2168 -22.585 -45.834 -27.3262 -61.7363 -27.3262c-27.3857 0 -52.6904 11.4658 -73.1777 33.1582c-69.8613 73.9678 -95.1152 289.493 -75.0557 640.592l0.266602 4.66895
c1.18848 20.9902 19.2607 37.0361 40.1582 35.8477c20.9902 -1.18848 37.041 -19.168 35.8486 -40.1582l-0.266602 -4.69922c-26.3154 -460.56 34.9814 -563.423 54.3945 -583.978c7.78613 -8.24316 13.6182 -9.30078 17.8311 -9.30078
c0.731445 0 2.95605 0 7.46484 4.58496c12.5693 12.7812 43.2793 62.8613 56.9355 251.387c8.55566 118.19 7.75195 248.845 6.08984 349.462c-0.342773 21.0156 16.4141 38.3389 37.4346 38.6855c21.041 0.333984 38.335 -16.4102 38.6855 -37.4346z" />
    <glyph glyph-name="V" unicode="V" horiz-adv-x="339" 
d="M305.287 698.348c20.7666 -3.26465 34.9561 -22.751 31.6914 -43.5176c-34.5244 -219.48 -129.58 -662.949 -130.536 -667.402c-3.76855 -17.5479 -19.2773 -30.0752 -37.2139 -30.0752h-0.135742c-17.9922 0.0634766 -33.4844 12.7178 -37.1387 30.3379
c-1.01074 4.86816 -101.354 489.197 -130.465 670.004c-3.34082 20.7539 10.7773 40.2891 31.5312 43.6299c20.7666 3.3623 40.2891 -10.7812 43.6299 -31.5303c17.4932 -108.653 61.1621 -328.958 93.043 -486.592c30.6035 148.511 71.8779 355.058 92.0771 483.458
c3.26953 20.7666 22.7881 34.9141 43.5166 31.6875z" />
    <glyph glyph-name="W" unicode="W" horiz-adv-x="494" 
d="M455.088 701.516c20.8633 -2.60938 35.6562 -21.6367 33.0381 -42.5049c-27.0127 -215.89 -101.421 -665.313 -102.17 -669.826c-2.91016 -17.5479 -17.5781 -30.7393 -35.333 -31.7754c-0.744141 -0.046875 -1.49316 -0.0683594 -2.2373 -0.0683594
c-16.8584 0 -31.8301 11.1445 -36.5547 27.5078c-2.09766 7.26562 -34.8672 121.277 -63.957 249.652c-30.3379 -136.631 -64.5068 -244.142 -66.6045 -250.693c-5.0625 -15.8223 -19.7686 -26.4639 -36.2383 -26.4639c-0.638672 0 -1.28125 0.0166016 -1.92383 0.0507812
c-17.2393 0.863281 -31.7373 13.2256 -35.3242 30.1094c-11.4023 53.6875 -82.5107 486.304 -102.537 661.811c-2.38574 20.8887 12.6162 39.752 33.501 42.1377c20.9141 2.33496 39.752 -12.6201 42.1328 -33.5049c12.9463 -113.445 47.3613 -334.981 72.8438 -489.976
c20.5967 81.8428 43.127 184.663 55.4727 283.313c0.0341797 0.241211 0.09375 0.469727 0.12793 0.710938c0.114258 0.799805 0.257812 1.59473 0.422852 2.38184c0.101562 0.473633 0.203125 0.947266 0.321289 1.41211
c0.181641 0.727539 0.384766 1.44238 0.609375 2.14844c0.165039 0.520508 0.330078 1.03613 0.516602 1.54785c0.228516 0.625977 0.473633 1.23926 0.731445 1.85254c0.232422 0.553711 0.473633 1.10742 0.731445 1.64453
c0.266602 0.553711 0.549805 1.09473 0.841797 1.63184c0.295898 0.545898 0.595703 1.0918 0.916992 1.62012c0.317383 0.52832 0.655273 1.03613 0.998047 1.54785c0.333984 0.490234 0.667969 0.980469 1.01855 1.4541
c0.397461 0.541016 0.820312 1.06152 1.25195 1.58203c0.330078 0.397461 0.660156 0.794922 1.00684 1.17969c0.507812 0.566406 1.04102 1.10742 1.58203 1.64453c0.300781 0.295898 0.600586 0.59668 0.913086 0.883789
c0.617188 0.575195 1.26465 1.11621 1.9248 1.64941c0.270508 0.21582 0.541016 0.44043 0.816406 0.652344c0.710938 0.541016 1.44727 1.04883 2.19629 1.53906c0.266602 0.173828 0.529297 0.351562 0.799805 0.520508
c0.75293 0.469727 1.52734 0.905273 2.31445 1.31934c0.317383 0.165039 0.629883 0.333984 0.947266 0.490234c0.740234 0.363281 1.48926 0.693359 2.25488 1.01074c0.422852 0.173828 0.841797 0.342773 1.26855 0.503906
c0.672852 0.25 1.35352 0.478516 2.04688 0.69043c0.558594 0.173828 1.11719 0.334961 1.68359 0.483398c0.59668 0.152344 1.19336 0.288086 1.80273 0.415039c0.680664 0.139648 1.36133 0.266602 2.05078 0.368164
c0.287109 0.0419922 0.5625 0.114258 0.849609 0.152344s0.570312 0.0380859 0.858398 0.0673828c0.664062 0.0673828 1.33203 0.12207 2.00488 0.15625c0.680664 0.0380859 1.35742 0.0546875 2.03027 0.0546875c0.52832 0 1.05664 -0.0126953 1.58496 -0.0341797
c0.816406 -0.0341797 1.62402 -0.0888672 2.42773 -0.177734c0.219727 -0.0214844 0.435547 -0.0214844 0.655273 -0.046875c0.21582 -0.0253906 0.422852 -0.0849609 0.638672 -0.114258c0.854492 -0.118164 1.7002 -0.270508 2.53809 -0.448242
c0.422852 -0.0888672 0.836914 -0.181641 1.25098 -0.283203c0.77832 -0.19043 1.54395 -0.410156 2.30566 -0.651367c0.473633 -0.148438 0.947266 -0.300781 1.41211 -0.469727c0.664062 -0.241211 1.31152 -0.499023 1.9541 -0.774414
c0.533203 -0.228516 1.05762 -0.453125 1.57812 -0.703125c0.558594 -0.270508 1.1084 -0.558594 1.6543 -0.854492c0.553711 -0.300781 1.10352 -0.600586 1.63672 -0.925781c0.499023 -0.304688 0.981445 -0.625977 1.46777 -0.951172
c0.533203 -0.359375 1.06152 -0.71875 1.57324 -1.09961c0.473633 -0.355469 0.93457 -0.727539 1.3916 -1.10352c0.473633 -0.393555 0.947266 -0.782227 1.39941 -1.19238c0.473633 -0.426758 0.925781 -0.875 1.37793 -1.32715
c0.393555 -0.397461 0.791016 -0.791016 1.16699 -1.20508c0.469727 -0.511719 0.90918 -1.04004 1.34863 -1.57324c0.325195 -0.397461 0.650391 -0.791016 0.958984 -1.20117c0.435547 -0.575195 0.845703 -1.16699 1.24707 -1.77148
c0.275391 -0.410156 0.550781 -0.824219 0.813477 -1.24707c0.37207 -0.609375 0.71875 -1.23145 1.05664 -1.86133c0.25 -0.464844 0.5 -0.929688 0.732422 -1.40723c0.287109 -0.59668 0.557617 -1.20605 0.81543 -1.82324
c0.237305 -0.553711 0.46582 -1.1123 0.672852 -1.68359c0.203125 -0.549805 0.389648 -1.1123 0.567383 -1.67871c0.211914 -0.667969 0.40625 -1.34082 0.580078 -2.02148c0.126953 -0.50293 0.241211 -1.01074 0.351562 -1.52246
c0.15625 -0.75293 0.291992 -1.50586 0.40625 -2.27148c0.0380859 -0.257812 0.101562 -0.50293 0.135742 -0.765625c10.5859 -82.6934 33.5215 -186.593 54.7871 -273.24c24.0732 150.465 57.0332 362.121 73.0713 490.302c2.60547 20.8555 21.625 35.5947 42.4932 33.0439
z" />
    <glyph glyph-name="X" unicode="X" horiz-adv-x="304" 
d="M111.841 315.372c-36.9688 111.317 -76.1689 233.513 -106.324 337.793c-5.84082 20.1953 5.79395 41.2998 25.9893 47.1406c20.1914 5.83691 41.3008 -5.79785 47.1416 -25.9893c21.2354 -73.4141 47.0088 -155.845 73.3154 -237.058
c26.3066 81.2168 52.085 163.652 73.3164 237.058c5.84082 20.1953 26.958 31.8223 47.1406 25.9902c20.1953 -5.83691 31.8301 -26.9463 25.9893 -47.1416c-30.1641 -104.284 -69.3623 -226.479 -106.331 -337.797c55.9551 -167.603 104.796 -304.859 105.621 -307.173
c7.05469 -19.8066 -3.27734 -41.5791 -23.0791 -48.6338c-4.2207 -1.50586 -8.53516 -2.2207 -12.7773 -2.2207c-15.6445 0 -30.3037 9.71484 -35.8564 25.2959c-0.667969 1.86523 -32.418 91.1055 -74.0264 213.424c-41.6084 -122.318 -73.3623 -211.555 -74.0264 -213.424
c-5.55273 -15.5723 -20.2158 -25.2959 -35.8564 -25.2959c-4.24219 0 -8.55176 0.714844 -12.7773 2.2207c-19.8066 7.05469 -30.1387 28.8271 -23.0801 48.6338c0.825195 2.31348 49.666 139.578 105.621 307.177z" />
    <glyph glyph-name="Y" unicode="Y" horiz-adv-x="316" 
d="M285.016 665.316c0.0126953 -0.308594 0.0585938 -0.613281 0.0546875 -0.938477c3.26074 -189.756 5.61621 -326.86 5.61621 -475.964c0 -140.204 -66.2539 -208.115 -131.915 -213.22c-2.66895 -0.207031 -5.35449 -0.308594 -8.05273 -0.308594
c-56.6953 0 -118.593 46.1426 -135.252 152.647c-3.25195 20.7705 10.9551 40.2383 31.7256 43.4863c20.749 3.25195 40.2422 -10.9551 43.4902 -31.7256c9.44043 -60.3447 38.4072 -89.9805 62.1934 -88.2002c24.7969 1.9248 61.6855 40.0908 61.6855 137.32
c0 45.1279 -0.219727 89.1855 -0.613281 133.967c-19.9121 -24.0859 -44.1172 -36.2451 -72.5088 -36.2451c-24.5137 0 -46.8789 10.1504 -64.6758 29.3564c-73.1562 78.9463 -57.2109 317.937 -55.1514 344.929c1.59863 20.9609 19.8447 36.7109 40.8525 35.0576
c20.9648 -1.59863 36.6602 -19.8867 35.0615 -40.8477c-7.09668 -92.9746 -0.849609 -248.616 35.0791 -287.392c4.60547 -4.97363 7.24902 -4.97363 8.83105 -4.97363c5.83203 0 57.2529 8.49707 67.5342 302.791
c0.0126953 0.321289 0.0634766 0.629883 0.0800781 0.947266c0.0380859 0.664062 0.0976562 1.32812 0.169922 1.98828c0.0673828 0.613281 0.147461 1.21777 0.245117 1.82227c0.105469 0.655273 0.228516 1.30664 0.368164 1.9541
c0.130859 0.59668 0.266602 1.18066 0.422852 1.76465c0.165039 0.625977 0.351562 1.23926 0.545898 1.85254c0.19043 0.587891 0.384766 1.16309 0.600586 1.73438c0.219727 0.587891 0.457031 1.16309 0.707031 1.73828
c0.241211 0.5625 0.495117 1.11621 0.765625 1.66211c0.275391 0.558594 0.567383 1.1084 0.87207 1.6543c0.288086 0.524414 0.587891 1.03613 0.900391 1.54395c0.337891 0.545898 0.688477 1.0791 1.05176 1.60742c0.325195 0.464844 0.650391 0.925781 0.993164 1.37402
c0.410156 0.541016 0.836914 1.06152 1.27246 1.58203c0.333984 0.393555 0.676758 0.787109 1.02734 1.16797c0.490234 0.537109 0.998047 1.05273 1.51855 1.56055c0.337891 0.325195 0.671875 0.646484 1.01855 0.958984
c0.579102 0.524414 1.17578 1.02344 1.78516 1.50977c0.325195 0.262695 0.650391 0.516602 0.984375 0.766602c0.664062 0.495117 1.34082 0.959961 2.03418 1.41211c0.317383 0.207031 0.634766 0.410156 0.959961 0.609375
c0.727539 0.444336 1.47168 0.858398 2.2334 1.25195c0.325195 0.168945 0.650391 0.333984 0.980469 0.495117c0.774414 0.37207 1.56152 0.71875 2.36523 1.04004c0.350586 0.143555 0.701172 0.279297 1.05664 0.410156
c0.791016 0.291992 1.59473 0.554688 2.41113 0.791992c0.401367 0.118164 0.802734 0.232422 1.20898 0.333984c0.782227 0.203125 1.57324 0.376953 2.37305 0.529297c0.464844 0.0888672 0.938477 0.168945 1.41211 0.241211
c0.756836 0.114258 1.51367 0.203125 2.2832 0.270508c0.541016 0.046875 1.08691 0.0849609 1.63672 0.110352c0.368164 0.0166016 0.727539 0.0712891 1.0957 0.0751953c0.224609 0.00390625 0.449219 0.00390625 0.668945 0.00390625
c0.237305 0 0.469727 -0.0292969 0.707031 -0.0332031c0.203125 -0.00390625 0.402344 0.0126953 0.609375 0.00878906c0.393555 -0.0126953 0.765625 -0.0722656 1.1543 -0.0976562c0.706055 -0.0419922 1.41211 -0.0927734 2.11035 -0.177734
c0.571289 -0.0722656 1.13379 -0.165039 1.69629 -0.257812c0.685547 -0.114258 1.36621 -0.232422 2.03906 -0.384766c0.571289 -0.126953 1.12988 -0.275391 1.68848 -0.427734c0.634766 -0.173828 1.26953 -0.351562 1.8916 -0.558594
c0.571289 -0.19043 1.13379 -0.397461 1.69238 -0.613281c0.583984 -0.224609 1.16797 -0.453125 1.73926 -0.707031c0.558594 -0.25 1.1123 -0.516602 1.6582 -0.791992c0.545898 -0.270508 1.08301 -0.549805 1.61133 -0.845703
c0.537109 -0.304688 1.06543 -0.625977 1.58594 -0.951172c0.507812 -0.317383 1.01074 -0.642578 1.50098 -0.985352c0.507812 -0.350586 0.998047 -0.71875 1.48438 -1.09082c0.477539 -0.368164 0.947266 -0.744141 1.4082 -1.13281
c0.460938 -0.393555 0.90918 -0.794922 1.34863 -1.20508c0.448242 -0.418945 0.887695 -0.850586 1.31934 -1.29004c0.410156 -0.418945 0.807617 -0.850586 1.19629 -1.29004c0.418945 -0.469727 0.825195 -0.947266 1.22266 -1.44238
c0.359375 -0.448242 0.709961 -0.905273 1.04785 -1.37012c0.375977 -0.520508 0.744141 -1.04102 1.09473 -1.57812c0.317383 -0.482422 0.617188 -0.96875 0.913086 -1.46387c0.325195 -0.549805 0.637695 -1.1084 0.9375 -1.6748
c0.275391 -0.515625 0.533203 -1.04004 0.783203 -1.56836c0.266602 -0.575195 0.520508 -1.15039 0.761719 -1.73828c0.232422 -0.558594 0.448242 -1.125 0.651367 -1.7002c0.207031 -0.579102 0.397461 -1.16309 0.575195 -1.75488
c0.181641 -0.609375 0.350586 -1.22266 0.50293 -1.84473c0.143555 -0.583984 0.274414 -1.16797 0.388672 -1.75977c0.130859 -0.651367 0.241211 -1.30664 0.333984 -1.9707c0.0800781 -0.587891 0.152344 -1.17969 0.207031 -1.78027
c0.0634766 -0.672852 0.105469 -1.3457 0.134766 -2.02637z" />
    <glyph glyph-name="Y" unicode="&#x178;" horiz-adv-x="316" 
d="M285.016 665.316c0.0126953 -0.308594 0.0585938 -0.613281 0.0546875 -0.938477c3.26074 -189.756 5.61621 -326.86 5.61621 -475.964c0 -140.204 -66.2539 -208.115 -131.915 -213.22c-2.66895 -0.207031 -5.35449 -0.308594 -8.05273 -0.308594
c-56.6953 0 -118.593 46.1426 -135.252 152.647c-3.25195 20.7705 10.9551 40.2383 31.7256 43.4863c20.749 3.25195 40.2422 -10.9551 43.4902 -31.7256c9.44043 -60.3447 38.4072 -89.9805 62.1934 -88.2002c24.7969 1.9248 61.6855 40.0908 61.6855 137.32
c0 45.1279 -0.219727 89.1855 -0.613281 133.967c-19.9121 -24.0859 -44.1172 -36.2451 -72.5088 -36.2451c-24.5137 0 -46.8789 10.1504 -64.6758 29.3564c-73.1562 78.9463 -57.2109 317.937 -55.1514 344.929c1.59863 20.9609 19.8447 36.7109 40.8525 35.0576
c20.9648 -1.59863 36.6602 -19.8867 35.0615 -40.8477c-7.09668 -92.9746 -0.849609 -248.616 35.0791 -287.392c4.60547 -4.97363 7.24902 -4.97363 8.83105 -4.97363c5.83203 0 57.2529 8.49707 67.5342 302.791
c0.0126953 0.321289 0.0634766 0.629883 0.0800781 0.947266c0.0380859 0.664062 0.0976562 1.32812 0.169922 1.98828c0.0673828 0.613281 0.147461 1.21777 0.245117 1.82227c0.105469 0.655273 0.228516 1.30664 0.368164 1.9541
c0.130859 0.59668 0.266602 1.18066 0.422852 1.76465c0.165039 0.625977 0.351562 1.23926 0.545898 1.85254c0.19043 0.587891 0.384766 1.16309 0.600586 1.73438c0.219727 0.587891 0.457031 1.16309 0.707031 1.73828
c0.241211 0.5625 0.495117 1.11621 0.765625 1.66211c0.275391 0.558594 0.567383 1.1084 0.87207 1.6543c0.288086 0.524414 0.587891 1.03613 0.900391 1.54395c0.337891 0.545898 0.688477 1.0791 1.05176 1.60742c0.325195 0.464844 0.650391 0.925781 0.993164 1.37402
c0.410156 0.541016 0.836914 1.06152 1.27246 1.58203c0.333984 0.393555 0.676758 0.787109 1.02734 1.16797c0.490234 0.537109 0.998047 1.05273 1.51855 1.56055c0.337891 0.325195 0.671875 0.646484 1.01855 0.958984
c0.579102 0.524414 1.17578 1.02344 1.78516 1.50977c0.325195 0.262695 0.650391 0.516602 0.984375 0.766602c0.664062 0.495117 1.34082 0.959961 2.03418 1.41211c0.317383 0.207031 0.634766 0.410156 0.959961 0.609375
c0.727539 0.444336 1.47168 0.858398 2.2334 1.25195c0.325195 0.168945 0.650391 0.333984 0.980469 0.495117c0.774414 0.37207 1.56152 0.71875 2.36523 1.04004c0.350586 0.143555 0.701172 0.279297 1.05664 0.410156
c0.791016 0.291992 1.59473 0.554688 2.41113 0.791992c0.401367 0.118164 0.802734 0.232422 1.20898 0.333984c0.782227 0.203125 1.57324 0.376953 2.37305 0.529297c0.464844 0.0888672 0.938477 0.168945 1.41211 0.241211
c0.756836 0.114258 1.51367 0.203125 2.2832 0.270508c0.541016 0.046875 1.08691 0.0849609 1.63672 0.110352c0.368164 0.0166016 0.727539 0.0712891 1.0957 0.0751953c0.224609 0.00390625 0.449219 0.00390625 0.668945 0.00390625
c0.237305 0 0.469727 -0.0292969 0.707031 -0.0332031c0.203125 -0.00390625 0.402344 0.0126953 0.609375 0.00878906c0.393555 -0.0126953 0.765625 -0.0722656 1.1543 -0.0976562c0.706055 -0.0419922 1.41211 -0.0927734 2.11035 -0.177734
c0.571289 -0.0722656 1.13379 -0.165039 1.69629 -0.257812c0.685547 -0.114258 1.36621 -0.232422 2.03906 -0.384766c0.571289 -0.126953 1.12988 -0.275391 1.68848 -0.427734c0.634766 -0.173828 1.26953 -0.351562 1.8916 -0.558594
c0.571289 -0.19043 1.13379 -0.397461 1.69238 -0.613281c0.583984 -0.224609 1.16797 -0.453125 1.73926 -0.707031c0.558594 -0.25 1.1123 -0.516602 1.6582 -0.791992c0.545898 -0.270508 1.08301 -0.549805 1.61133 -0.845703
c0.537109 -0.304688 1.06543 -0.625977 1.58594 -0.951172c0.507812 -0.317383 1.01074 -0.642578 1.50098 -0.985352c0.507812 -0.350586 0.998047 -0.71875 1.48438 -1.09082c0.477539 -0.368164 0.947266 -0.744141 1.4082 -1.13281
c0.460938 -0.393555 0.90918 -0.794922 1.34863 -1.20508c0.448242 -0.418945 0.887695 -0.850586 1.31934 -1.29004c0.410156 -0.418945 0.807617 -0.850586 1.19629 -1.29004c0.418945 -0.469727 0.825195 -0.947266 1.22266 -1.44238
c0.359375 -0.448242 0.709961 -0.905273 1.04785 -1.37012c0.375977 -0.520508 0.744141 -1.04102 1.09473 -1.57812c0.317383 -0.482422 0.617188 -0.96875 0.913086 -1.46387c0.325195 -0.549805 0.637695 -1.1084 0.9375 -1.6748
c0.275391 -0.515625 0.533203 -1.04004 0.783203 -1.56836c0.266602 -0.575195 0.520508 -1.15039 0.761719 -1.73828c0.232422 -0.558594 0.448242 -1.125 0.651367 -1.7002c0.207031 -0.579102 0.397461 -1.16309 0.575195 -1.75488
c0.181641 -0.609375 0.350586 -1.22266 0.50293 -1.84473c0.143555 -0.583984 0.274414 -1.16797 0.388672 -1.75977c0.130859 -0.651367 0.241211 -1.30664 0.333984 -1.9707c0.0800781 -0.587891 0.152344 -1.17969 0.207031 -1.78027
c0.0634766 -0.672852 0.105469 -1.3457 0.134766 -2.02637z" />
    <glyph glyph-name="Y" unicode="&#xdd;" horiz-adv-x="316" 
d="M285.016 665.316c0.0126953 -0.308594 0.0585938 -0.613281 0.0546875 -0.938477c3.26074 -189.756 5.61621 -326.86 5.61621 -475.964c0 -140.204 -66.2539 -208.115 -131.915 -213.22c-2.66895 -0.207031 -5.35449 -0.308594 -8.05273 -0.308594
c-56.6953 0 -118.593 46.1426 -135.252 152.647c-3.25195 20.7705 10.9551 40.2383 31.7256 43.4863c20.749 3.25195 40.2422 -10.9551 43.4902 -31.7256c9.44043 -60.3447 38.4072 -89.9805 62.1934 -88.2002c24.7969 1.9248 61.6855 40.0908 61.6855 137.32
c0 45.1279 -0.219727 89.1855 -0.613281 133.967c-19.9121 -24.0859 -44.1172 -36.2451 -72.5088 -36.2451c-24.5137 0 -46.8789 10.1504 -64.6758 29.3564c-73.1562 78.9463 -57.2109 317.937 -55.1514 344.929c1.59863 20.9609 19.8447 36.7109 40.8525 35.0576
c20.9648 -1.59863 36.6602 -19.8867 35.0615 -40.8477c-7.09668 -92.9746 -0.849609 -248.616 35.0791 -287.392c4.60547 -4.97363 7.24902 -4.97363 8.83105 -4.97363c5.83203 0 57.2529 8.49707 67.5342 302.791
c0.0126953 0.321289 0.0634766 0.629883 0.0800781 0.947266c0.0380859 0.664062 0.0976562 1.32812 0.169922 1.98828c0.0673828 0.613281 0.147461 1.21777 0.245117 1.82227c0.105469 0.655273 0.228516 1.30664 0.368164 1.9541
c0.130859 0.59668 0.266602 1.18066 0.422852 1.76465c0.165039 0.625977 0.351562 1.23926 0.545898 1.85254c0.19043 0.587891 0.384766 1.16309 0.600586 1.73438c0.219727 0.587891 0.457031 1.16309 0.707031 1.73828
c0.241211 0.5625 0.495117 1.11621 0.765625 1.66211c0.275391 0.558594 0.567383 1.1084 0.87207 1.6543c0.288086 0.524414 0.587891 1.03613 0.900391 1.54395c0.337891 0.545898 0.688477 1.0791 1.05176 1.60742c0.325195 0.464844 0.650391 0.925781 0.993164 1.37402
c0.410156 0.541016 0.836914 1.06152 1.27246 1.58203c0.333984 0.393555 0.676758 0.787109 1.02734 1.16797c0.490234 0.537109 0.998047 1.05273 1.51855 1.56055c0.337891 0.325195 0.671875 0.646484 1.01855 0.958984
c0.579102 0.524414 1.17578 1.02344 1.78516 1.50977c0.325195 0.262695 0.650391 0.516602 0.984375 0.766602c0.664062 0.495117 1.34082 0.959961 2.03418 1.41211c0.317383 0.207031 0.634766 0.410156 0.959961 0.609375
c0.727539 0.444336 1.47168 0.858398 2.2334 1.25195c0.325195 0.168945 0.650391 0.333984 0.980469 0.495117c0.774414 0.37207 1.56152 0.71875 2.36523 1.04004c0.350586 0.143555 0.701172 0.279297 1.05664 0.410156
c0.791016 0.291992 1.59473 0.554688 2.41113 0.791992c0.401367 0.118164 0.802734 0.232422 1.20898 0.333984c0.782227 0.203125 1.57324 0.376953 2.37305 0.529297c0.464844 0.0888672 0.938477 0.168945 1.41211 0.241211
c0.756836 0.114258 1.51367 0.203125 2.2832 0.270508c0.541016 0.046875 1.08691 0.0849609 1.63672 0.110352c0.368164 0.0166016 0.727539 0.0712891 1.0957 0.0751953c0.224609 0.00390625 0.449219 0.00390625 0.668945 0.00390625
c0.237305 0 0.469727 -0.0292969 0.707031 -0.0332031c0.203125 -0.00390625 0.402344 0.0126953 0.609375 0.00878906c0.393555 -0.0126953 0.765625 -0.0722656 1.1543 -0.0976562c0.706055 -0.0419922 1.41211 -0.0927734 2.11035 -0.177734
c0.571289 -0.0722656 1.13379 -0.165039 1.69629 -0.257812c0.685547 -0.114258 1.36621 -0.232422 2.03906 -0.384766c0.571289 -0.126953 1.12988 -0.275391 1.68848 -0.427734c0.634766 -0.173828 1.26953 -0.351562 1.8916 -0.558594
c0.571289 -0.19043 1.13379 -0.397461 1.69238 -0.613281c0.583984 -0.224609 1.16797 -0.453125 1.73926 -0.707031c0.558594 -0.25 1.1123 -0.516602 1.6582 -0.791992c0.545898 -0.270508 1.08301 -0.549805 1.61133 -0.845703
c0.537109 -0.304688 1.06543 -0.625977 1.58594 -0.951172c0.507812 -0.317383 1.01074 -0.642578 1.50098 -0.985352c0.507812 -0.350586 0.998047 -0.71875 1.48438 -1.09082c0.477539 -0.368164 0.947266 -0.744141 1.4082 -1.13281
c0.460938 -0.393555 0.90918 -0.794922 1.34863 -1.20508c0.448242 -0.418945 0.887695 -0.850586 1.31934 -1.29004c0.410156 -0.418945 0.807617 -0.850586 1.19629 -1.29004c0.418945 -0.469727 0.825195 -0.947266 1.22266 -1.44238
c0.359375 -0.448242 0.709961 -0.905273 1.04785 -1.37012c0.375977 -0.520508 0.744141 -1.04102 1.09473 -1.57812c0.317383 -0.482422 0.617188 -0.96875 0.913086 -1.46387c0.325195 -0.549805 0.637695 -1.1084 0.9375 -1.6748
c0.275391 -0.515625 0.533203 -1.04004 0.783203 -1.56836c0.266602 -0.575195 0.520508 -1.15039 0.761719 -1.73828c0.232422 -0.558594 0.448242 -1.125 0.651367 -1.7002c0.207031 -0.579102 0.397461 -1.16309 0.575195 -1.75488
c0.181641 -0.609375 0.350586 -1.22266 0.50293 -1.84473c0.143555 -0.583984 0.274414 -1.16797 0.388672 -1.75977c0.130859 -0.651367 0.241211 -1.30664 0.333984 -1.9707c0.0800781 -0.587891 0.152344 -1.17969 0.207031 -1.78027
c0.0634766 -0.672852 0.105469 -1.3457 0.134766 -2.02637z" />
    <glyph glyph-name="Z" unicode="Z" horiz-adv-x="282" 
d="M267.771 14.0693c1.31934 -20.9824 -14.6182 -39.0576 -35.6045 -40.373c-4.77539 -0.304688 -14.8457 -0.427734 -28.7266 -0.427734c-29.7285 0 -76.9248 0.575195 -127.047 1.23047c-19.2773 0.25 -33.8691 0.444336 -38.3271 0.444336
c-21.0244 0 -38.0645 17.04 -38.0645 38.0645c0 0.448242 0.0507812 0.883789 0.0673828 1.33203c-0.194336 4.52148 0.37207 9.15234 1.89062 13.7031c1.19238 3.56543 112.78 338.335 191.168 597.063c-24.1875 -0.34668 -52.6387 -0.798828 -77.9473 -1.20508
c-38.9912 -0.62207 -69.79 -1.1123 -77.1113 -1.1123c-21.0244 0 -38.0645 17.04 -38.0645 38.0645s17.04 38.0645 38.0645 38.0645c6.71582 0 40.3184 0.537109 75.9004 1.10352c52.0508 0.825195 110.962 1.76855 129.96 1.78516h0.140625h0.401367
c0.388672 0 0.769531 -0.046875 1.1543 -0.0595703c0.816406 -0.0253906 1.62891 -0.0419922 2.44922 -0.12207c0.685547 -0.0634766 1.35352 -0.177734 2.03027 -0.279297c0.553711 -0.0800781 1.10742 -0.143555 1.66113 -0.253906
c0.930664 -0.181641 1.83105 -0.418945 2.73633 -0.664062c0.270508 -0.0761719 0.545898 -0.118164 0.816406 -0.198242c0.0419922 -0.0126953 0.0800781 -0.0292969 0.12207 -0.0419922c1.00195 -0.299805 1.97852 -0.65918 2.94727 -1.04004
c0.224609 -0.0888672 0.457031 -0.161133 0.676758 -0.25c0.829102 -0.34668 1.62891 -0.744141 2.42871 -1.14551c0.342773 -0.168945 0.702148 -0.317383 1.04004 -0.499023c0.469727 -0.253906 0.914062 -0.549805 1.37109 -0.820312
c4.39844 -2.61328 8.14551 -6.03906 11.1016 -10.0312c2.91406 -3.9209 5.08398 -8.41699 6.31934 -13.2939c0.135742 -0.533203 0.296875 -1.05762 0.411133 -1.59473c0.0761719 -0.37207 0.114258 -0.760742 0.181641 -1.13672
c0.15625 -0.879883 0.3125 -1.75977 0.405273 -2.65234c0.0253906 -0.245117 0.0253906 -0.50293 0.046875 -0.75293c0.0888672 -1.02344 0.152344 -2.05078 0.15625 -3.09082c0.00390625 -0.0419922 0.0078125 -0.0839844 0.0078125 -0.130859
c0 -0.295898 -0.0341797 -0.583984 -0.0429688 -0.875977c-0.0214844 -0.917969 -0.0507812 -1.83594 -0.139648 -2.75781c-0.0595703 -0.62207 -0.169922 -1.23535 -0.258789 -1.85254c-0.0927734 -0.609375 -0.160156 -1.21387 -0.27832 -1.82324
c-0.177734 -0.917969 -0.415039 -1.81055 -0.65625 -2.70312c-0.0761719 -0.279297 -0.118164 -0.558594 -0.203125 -0.837891c-0.0253906 -0.0976562 -0.0546875 -0.195312 -0.0839844 -0.288086c-0.0292969 -0.101562 -0.0585938 -0.203125 -0.0878906 -0.300781
c-62.3203 -209.601 -154.868 -491.93 -191.186 -601.855c47.1875 -0.609375 125.554 -1.54785 137.794 -0.786133c20.999 1.29004 39.0547 -14.625 40.3789 -35.5986z" />
    <glyph glyph-name="bracketleft" unicode="[" horiz-adv-x="138" 
d="M168.241 -226.041c11.3301 -17.7002 6.16406 -41.2432 -11.5439 -52.5859c-16.249 -10.4004 -43.1523 -15.7002 -65.2803 -15.7002c-8.01465 0 -15.3994 0.693359 -21.4307 2.09375c-17.083 3.96289 -25.9229 13.4541 -30.3301 20.7197
c-7.13477 11.7578 -7.56152 12.46 -8.75 203.324c-0.642578 103.464 -0.963867 243.918 -0.900391 395.495c0.0595703 146.549 0.486328 290.416 1.17188 394.704c0.368164 56.082 0.799805 100.152 1.28613 130.993c0.257812 16.3467 0.533203 29.0352 0.816406 37.7178
c0.549805 16.7988 0.883789 26.9326 10.3701 37.7129c6.86035 7.81641 22.2598 20.1533 47.9912 14.4814c1.18457 -0.139648 5.65527 0.0546875 8.60742 0.177734c11.2422 0.495117 26.624 1.18066 42.3027 -5.80664c19.2061 -8.55176 27.8428 -31.0479 19.2949 -50.2539
c-8.35352 -18.7656 -30.0205 -27.4482 -48.9258 -19.8564c-0.972656 0.0927734 -2.50391 0.0966797 -4.16992 0.0546875c-3.36621 -166.431 -3.43359 -920.671 -0.0927734 -1083.54c3.15527 0.647461 5.88281 1.39648 7.5957 2.18359
c17.6279 10.8359 40.7793 5.6084 51.9873 -11.9102z" />
    <glyph glyph-name="backslash" unicode="\" horiz-adv-x="354" 
d="M303.26 -97.4082c3.83984 -20.6729 -9.7998 -40.5371 -30.4775 -44.377c-2.34766 -0.435547 -4.69043 -0.647461 -6.99512 -0.647461c-17.9834 0 -33.9746 12.7979 -37.3789 31.1152l-177.762 956.693c-3.83594 20.6729 9.80371 40.5381 30.4727 44.3779
c20.6436 3.87793 40.5391 -9.7959 44.3789 -30.4688z" />
    <glyph glyph-name="bracketright" unicode="]" horiz-adv-x="138" 
d="M107.236 327.316c0.0595703 -151.577 -0.255859 -292.036 -0.90332 -395.495c-1.18848 -190.868 -1.61523 -191.57 -8.75488 -203.332c-4.40234 -7.25293 -13.2422 -16.748 -30.3252 -20.7109c-6.02734 -1.40039 -13.416 -2.09375 -21.4268 -2.09375
c-22.1279 0 -49.0312 5.2998 -65.2803 15.7002c-17.7041 11.3389 -22.8682 34.875 -11.5332 52.583c11.208 17.5098 34.3594 22.7539 51.9873 11.9014c1.71289 -0.782227 4.44043 -1.53516 7.5918 -2.17773c3.34082 162.865 3.27344 917.102 -0.0927734 1083.54
c-1.66602 0.0380859 -3.19727 0.0380859 -4.17383 -0.0546875c-18.9014 -7.5791 -40.5732 1.09082 -48.9268 19.8564c-8.54785 19.2061 0.0927734 41.7109 19.2988 50.2588c15.6738 6.97852 31.0518 6.29297 42.2979 5.80273
c2.95605 -0.126953 7.42676 -0.321289 8.92383 -0.114258c25.3975 5.5957 40.8047 -6.72461 47.6943 -14.5654c9.46973 -10.7598 9.7998 -20.8936 10.3496 -37.6885c0.287109 -8.68262 0.557617 -21.3711 0.81543 -37.7178
c0.486328 -30.8408 0.917969 -74.9111 1.28613 -130.993c0.685547 -104.297 1.1123 -248.164 1.17188 -394.704z" />
    <glyph glyph-name="asciicircum" unicode="^" horiz-adv-x="246" 
d="M225.369 555.826c4.80859 -20.4658 -7.8877 -40.9541 -28.3535 -45.7588c-20.4619 -4.7959 -40.9531 7.88379 -45.7617 28.3496c-5.89551 25.0928 -16.6299 71.625 -27.626 119.464c-11.0557 -45.9014 -22.1201 -92.2891 -29.4668 -124.226
c-4.05176 -17.6152 -19.7256 -29.5381 -37.0615 -29.5381c-2.8252 0 -5.69238 0.317383 -8.56445 0.977539c-20.4873 4.71191 -33.2725 25.1396 -28.5605 45.627c20.0137 87.0117 67.2939 279.965 67.7676 281.906c4.1748 17.0361 19.4473 29.001 36.9658 29.001h0.300781
c17.6455 -0.139648 32.8799 -12.3838 36.8135 -29.585c0.482422 -2.10645 48.3037 -211.326 63.5469 -276.218z" />
    <glyph glyph-name="underscore" unicode="_" horiz-adv-x="352" 
d="M283.611 -98.2959c21.0156 -0.308594 37.8125 -17.5977 37.5078 -38.6133c-0.304688 -20.8301 -17.2861 -37.5107 -38.0527 -37.5107c-0.186523 0 -0.373047 0 -0.563477 0.00390625c-34.5332 0.50293 -68.707 -1.3457 -104.89 -3.2998
c-31.8389 -1.72168 -64.6377 -3.49414 -97.5723 -3.49414c-4.1748 0 -8.35352 0.0253906 -12.5322 0.0888672c-21.0205 0.304688 -37.8115 17.5947 -37.5068 38.6152c0.304688 20.8301 17.2861 37.5107 38.0527 37.5107c0.186523 0 0.373047 0 0.563477 -0.00390625
c34.5371 -0.524414 68.7061 1.34473 104.889 3.29883c35.874 1.94141 72.9619 3.96289 110.104 3.4043z" />
    <glyph glyph-name="grave" unicode="`" horiz-adv-x="114" 
d="M95.9316 666.281c2.44434 -20.8809 -12.4971 -39.792 -33.3779 -42.2324c-1.50586 -0.177734 -2.99902 -0.266602 -4.47949 -0.266602c-19.0449 0 -35.4893 14.2617 -37.7607 33.6367c-6.06055 51.7217 -8.83105 105.088 -8.23438 158.619
c0.237305 20.8721 17.2314 37.6377 38.0566 37.6377c0.148438 0 0.291992 0 0.435547 -0.00390625c21.0205 -0.232422 37.875 -17.4629 37.6377 -38.4873c-0.558594 -50.2998 2.03809 -100.396 7.72266 -148.903z" />
    <glyph glyph-name="a" unicode="a" horiz-adv-x="328" 
d="M292.862 -21.0303c-20.7412 -3.46777 -40.3555 10.5479 -43.8154 31.2803c-5.29102 31.7119 -12.0283 73.3672 -19.5732 120.698c-0.19043 0 -0.380859 0 -0.575195 0.00390625c-25.1562 0.499023 -52.1992 0.342773 -80.8193 0.173828
c-15.1494 -0.0927734 -30.7432 -0.181641 -46.7852 -0.181641c-1.28125 0 -2.5498 0.0673828 -3.80176 0.19043c-7.00391 -46.1084 -13.1074 -87.8945 -17.7002 -121.958c-2.57617 -19.1084 -18.9141 -32.9805 -37.6758 -32.9805
c-1.69629 0 -3.40918 0.110352 -5.13477 0.347656c-20.834 2.80859 -35.4463 21.9717 -32.6377 42.8096c20.3984 151.281 70.0176 451.741 97.7793 617.368c7.21973 43.0723 36.665 62.2822 62.7734 62.2822h0.354492c26.3242 -0.177734 55.8965 -19.8994 62.6172 -63.5684
c26.4336 -171.764 74.0908 -479.761 96.2744 -612.657c3.45996 -20.7324 -10.5439 -40.3486 -31.2803 -43.8086zM147.631 207.25c24.3525 0.152344 47.5137 0.260742 69.752 -0.00976562c-17.4551 110.675 -37.1221 237.48 -52.9785 340.191
c-16.8418 -101.323 -37.54 -227.566 -55.1895 -340.343c13.0859 0.0253906 25.9395 0.0888672 38.416 0.161133z" />
    <glyph glyph-name="a" unicode="&#xe5;" horiz-adv-x="328" 
d="M292.862 -21.0303c-20.7412 -3.46777 -40.3555 10.5479 -43.8154 31.2803c-5.29102 31.7119 -12.0283 73.3672 -19.5732 120.698c-0.19043 0 -0.380859 0 -0.575195 0.00390625c-25.1562 0.499023 -52.1992 0.342773 -80.8193 0.173828
c-15.1494 -0.0927734 -30.7432 -0.181641 -46.7852 -0.181641c-1.28125 0 -2.5498 0.0673828 -3.80176 0.19043c-7.00391 -46.1084 -13.1074 -87.8945 -17.7002 -121.958c-2.57617 -19.1084 -18.9141 -32.9805 -37.6758 -32.9805
c-1.69629 0 -3.40918 0.110352 -5.13477 0.347656c-20.834 2.80859 -35.4463 21.9717 -32.6377 42.8096c20.3984 151.281 70.0176 451.741 97.7793 617.368c7.21973 43.0723 36.665 62.2822 62.7734 62.2822h0.354492c26.3242 -0.177734 55.8965 -19.8994 62.6172 -63.5684
c26.4336 -171.764 74.0908 -479.761 96.2744 -612.657c3.45996 -20.7324 -10.5439 -40.3486 -31.2803 -43.8086zM147.631 207.25c24.3525 0.152344 47.5137 0.260742 69.752 -0.00976562c-17.4551 110.675 -37.1221 237.48 -52.9785 340.191
c-16.8418 -101.323 -37.54 -227.566 -55.1895 -340.343c13.0859 0.0253906 25.9395 0.0888672 38.416 0.161133z" />
    <glyph glyph-name="a" unicode="&#xe4;" horiz-adv-x="328" 
d="M292.862 -21.0303c-20.7412 -3.46777 -40.3555 10.5479 -43.8154 31.2803c-5.29102 31.7119 -12.0283 73.3672 -19.5732 120.698c-0.19043 0 -0.380859 0 -0.575195 0.00390625c-25.1562 0.499023 -52.1992 0.342773 -80.8193 0.173828
c-15.1494 -0.0927734 -30.7432 -0.181641 -46.7852 -0.181641c-1.28125 0 -2.5498 0.0673828 -3.80176 0.19043c-7.00391 -46.1084 -13.1074 -87.8945 -17.7002 -121.958c-2.57617 -19.1084 -18.9141 -32.9805 -37.6758 -32.9805
c-1.69629 0 -3.40918 0.110352 -5.13477 0.347656c-20.834 2.80859 -35.4463 21.9717 -32.6377 42.8096c20.3984 151.281 70.0176 451.741 97.7793 617.368c7.21973 43.0723 36.665 62.2822 62.7734 62.2822h0.354492c26.3242 -0.177734 55.8965 -19.8994 62.6172 -63.5684
c26.4336 -171.764 74.0908 -479.761 96.2744 -612.657c3.45996 -20.7324 -10.5439 -40.3486 -31.2803 -43.8086zM147.631 207.25c24.3525 0.152344 47.5137 0.260742 69.752 -0.00976562c-17.4551 110.675 -37.1221 237.48 -52.9785 340.191
c-16.8418 -101.323 -37.54 -227.566 -55.1895 -340.343c13.0859 0.0253906 25.9395 0.0888672 38.416 0.161133z" />
    <glyph glyph-name="a" unicode="&#xe3;" horiz-adv-x="328" 
d="M292.862 -21.0303c-20.7412 -3.46777 -40.3555 10.5479 -43.8154 31.2803c-5.29102 31.7119 -12.0283 73.3672 -19.5732 120.698c-0.19043 0 -0.380859 0 -0.575195 0.00390625c-25.1562 0.499023 -52.1992 0.342773 -80.8193 0.173828
c-15.1494 -0.0927734 -30.7432 -0.181641 -46.7852 -0.181641c-1.28125 0 -2.5498 0.0673828 -3.80176 0.19043c-7.00391 -46.1084 -13.1074 -87.8945 -17.7002 -121.958c-2.57617 -19.1084 -18.9141 -32.9805 -37.6758 -32.9805
c-1.69629 0 -3.40918 0.110352 -5.13477 0.347656c-20.834 2.80859 -35.4463 21.9717 -32.6377 42.8096c20.3984 151.281 70.0176 451.741 97.7793 617.368c7.21973 43.0723 36.665 62.2822 62.7734 62.2822h0.354492c26.3242 -0.177734 55.8965 -19.8994 62.6172 -63.5684
c26.4336 -171.764 74.0908 -479.761 96.2744 -612.657c3.45996 -20.7324 -10.5439 -40.3486 -31.2803 -43.8086zM147.631 207.25c24.3525 0.152344 47.5137 0.260742 69.752 -0.00976562c-17.4551 110.675 -37.1221 237.48 -52.9785 340.191
c-16.8418 -101.323 -37.54 -227.566 -55.1895 -340.343c13.0859 0.0253906 25.9395 0.0888672 38.416 0.161133z" />
    <glyph glyph-name="a" unicode="&#xe2;" horiz-adv-x="328" 
d="M292.862 -21.0303c-20.7412 -3.46777 -40.3555 10.5479 -43.8154 31.2803c-5.29102 31.7119 -12.0283 73.3672 -19.5732 120.698c-0.19043 0 -0.380859 0 -0.575195 0.00390625c-25.1562 0.499023 -52.1992 0.342773 -80.8193 0.173828
c-15.1494 -0.0927734 -30.7432 -0.181641 -46.7852 -0.181641c-1.28125 0 -2.5498 0.0673828 -3.80176 0.19043c-7.00391 -46.1084 -13.1074 -87.8945 -17.7002 -121.958c-2.57617 -19.1084 -18.9141 -32.9805 -37.6758 -32.9805
c-1.69629 0 -3.40918 0.110352 -5.13477 0.347656c-20.834 2.80859 -35.4463 21.9717 -32.6377 42.8096c20.3984 151.281 70.0176 451.741 97.7793 617.368c7.21973 43.0723 36.665 62.2822 62.7734 62.2822h0.354492c26.3242 -0.177734 55.8965 -19.8994 62.6172 -63.5684
c26.4336 -171.764 74.0908 -479.761 96.2744 -612.657c3.45996 -20.7324 -10.5439 -40.3486 -31.2803 -43.8086zM147.631 207.25c24.3525 0.152344 47.5137 0.260742 69.752 -0.00976562c-17.4551 110.675 -37.1221 237.48 -52.9785 340.191
c-16.8418 -101.323 -37.54 -227.566 -55.1895 -340.343c13.0859 0.0253906 25.9395 0.0888672 38.416 0.161133z" />
    <glyph glyph-name="a" unicode="&#xe1;" horiz-adv-x="328" 
d="M292.862 -21.0303c-20.7412 -3.46777 -40.3555 10.5479 -43.8154 31.2803c-5.29102 31.7119 -12.0283 73.3672 -19.5732 120.698c-0.19043 0 -0.380859 0 -0.575195 0.00390625c-25.1562 0.499023 -52.1992 0.342773 -80.8193 0.173828
c-15.1494 -0.0927734 -30.7432 -0.181641 -46.7852 -0.181641c-1.28125 0 -2.5498 0.0673828 -3.80176 0.19043c-7.00391 -46.1084 -13.1074 -87.8945 -17.7002 -121.958c-2.57617 -19.1084 -18.9141 -32.9805 -37.6758 -32.9805
c-1.69629 0 -3.40918 0.110352 -5.13477 0.347656c-20.834 2.80859 -35.4463 21.9717 -32.6377 42.8096c20.3984 151.281 70.0176 451.741 97.7793 617.368c7.21973 43.0723 36.665 62.2822 62.7734 62.2822h0.354492c26.3242 -0.177734 55.8965 -19.8994 62.6172 -63.5684
c26.4336 -171.764 74.0908 -479.761 96.2744 -612.657c3.45996 -20.7324 -10.5439 -40.3486 -31.2803 -43.8086zM147.631 207.25c24.3525 0.152344 47.5137 0.260742 69.752 -0.00976562c-17.4551 110.675 -37.1221 237.48 -52.9785 340.191
c-16.8418 -101.323 -37.54 -227.566 -55.1895 -340.343c13.0859 0.0253906 25.9395 0.0888672 38.416 0.161133z" />
    <glyph glyph-name="b" unicode="b" 
d="M258.352 269.809c33.209 -41.1094 45.0713 -95.5 35.2588 -161.673c-7.0127 -47.3818 -31.7627 -85.6367 -71.5693 -110.624c-33.6699 -21.1348 -72.7627 -29.5635 -107.773 -29.5635c-20.3096 0 -39.2275 2.8418 -54.9395 7.67578
c-1.4082 0.414062 -2.78711 0.904297 -4.12793 1.47559c-0.321289 0.135742 -0.625977 0.304688 -0.943359 0.448242c-0.791016 0.363281 -1.58594 0.726562 -2.34766 1.14551c-0.545898 0.295898 -1.06152 0.629883 -1.58984 0.951172
c-0.50293 0.308594 -1.01465 0.604492 -1.50488 0.93457c-0.604492 0.40625 -1.17578 0.850586 -1.75098 1.29004c-0.388672 0.291992 -0.782227 0.575195 -1.1582 0.883789c-0.571289 0.473633 -1.1084 0.972656 -1.64551 1.47168
c-0.359375 0.330078 -0.722656 0.651367 -1.06934 0.998047c-0.482422 0.486328 -0.93457 0.989258 -1.38672 1.49707c-0.368164 0.414062 -0.749023 0.820312 -1.09961 1.25195c-0.375977 0.457031 -0.722656 0.93457 -1.07812 1.41211
c-0.388672 0.515625 -0.777344 1.03125 -1.13672 1.56836c-0.283203 0.426758 -0.541016 0.862305 -0.807617 1.29785c-0.375977 0.617188 -0.751953 1.23926 -1.09863 1.87793c-0.21582 0.40625 -0.40625 0.820312 -0.609375 1.23047
c-0.333984 0.685547 -0.667969 1.375 -0.963867 2.08105c-0.181641 0.435547 -0.333984 0.875 -0.499023 1.31445c-0.262695 0.689453 -0.520508 1.38281 -0.740234 2.09375c-0.165039 0.533203 -0.295898 1.0791 -0.439453 1.62012
c-0.161133 0.62207 -0.334961 1.23926 -0.46582 1.87402c-0.148438 0.706055 -0.25 1.4209 -0.360352 2.13574c-0.0722656 0.490234 -0.161133 0.967773 -0.21582 1.46289c-0.0976562 0.883789 -0.139648 1.77148 -0.177734 2.66406
c-0.0126953 0.295898 -0.0546875 0.583008 -0.0585938 0.882812c-0.00390625 0.165039 -0.00390625 0.330078 -0.0078125 0.499023c0 0.0849609 -0.00390625 0.161133 -0.00390625 0.246094c-3.63281 218.938 -4.00488 422.098 -1.1709 639.272
c0.00390625 0.168945 0.0292969 0.333984 0.0332031 0.507812c0.0214844 0.803711 0.0810547 1.60352 0.15332 2.39844c0.046875 0.490234 0.0810547 0.976562 0.144531 1.45898c0.0927734 0.723633 0.223633 1.43848 0.359375 2.15332
c0.0976562 0.524414 0.186523 1.05273 0.30957 1.56836c0.165039 0.698242 0.368164 1.37891 0.567383 2.06836c0.143555 0.490234 0.274414 0.985352 0.435547 1.46777c0.266602 0.787109 0.575195 1.55664 0.892578 2.32617
c0.139648 0.337891 0.262695 0.680664 0.411133 1.01465c0.448242 1.00684 0.947266 1.9834 1.48047 2.95215c0.0380859 0.0673828 0.0673828 0.134766 0.105469 0.202148c2.90527 5.18555 7.0498 9.71094 12.248 13.1328
c0.0673828 0.0419922 0.130859 0.0888672 0.198242 0.135742c0.803711 0.520508 1.63672 1.00293 2.49121 1.46777c0.321289 0.177734 0.633789 0.355469 0.958984 0.524414c0.262695 0.135742 0.507812 0.296875 0.774414 0.423828
c0.524414 0.253906 1.1084 0.457031 1.6416 0.702148c0.291992 0.123047 0.575195 0.258789 0.867188 0.373047c39.2314 17.5098 105.896 15.5176 160.303 -22.3818c87.8359 -61.2031 97.8809 -197.525 52.1484 -286.448
c-14.3584 -27.9268 -35.8018 -49.3066 -59.4648 -65.4082c19.9414 -11.3936 36.8672 -25.5537 50.4229 -42.3359zM171.716 601.536c-21.1172 14.7139 -46.2607 19.8955 -65.0811 19.3369c-1.08301 -92.125 -1.57812 -181.966 -1.48535 -271.798
c33.7002 8.04883 76.459 28.1465 94.5352 63.2969c29.707 57.7695 23.9639 152.981 -27.9688 189.164zM218.319 119.28c6.54688 44.2646 0.09375 78.8145 -19.2012 102.698c-22.458 27.7959 -60.0322 39.8242 -93.7197 44.7598
c0.368164 -73.249 1.12988 -147.001 2.28027 -222.475c23.6973 -1.04883 51.9922 3.9668 73.9043 17.7207c20.9609 13.1572 32.9766 31.9023 36.7363 57.2959z" />
    <glyph glyph-name="c" unicode="c" horiz-adv-x="299" 
d="M260.514 176.762c20.9062 -2.22852 36.042 -20.9873 33.8086 -41.8887c-15.2852 -143.283 -96.2607 -158.04 -120.711 -159.152c-1.72559 -0.0722656 -3.44238 -0.114258 -5.14258 -0.114258c-71.1846 0 -118.795 68.5547 -141.566 203.896
c-15.2383 90.6104 -14.4727 200.63 2.10254 301.856c2.58887 15.8057 12.7646 71.3711 35.1045 122.805c27.3262 62.916 62.8701 94.8271 105.65 94.8398h0.0302734c57.1562 0 98.2275 -53.9844 109.884 -144.43c2.68945 -20.8506 -12.0332 -39.9297 -32.8838 -42.6191
c-20.8809 -2.70703 -39.9297 12.0322 -42.6191 32.8789c-7.02051 54.4834 -26.167 78.0449 -34.3848 78.041c-3.77246 0 -18.4658 -9.0166 -35.8486 -49.0391c-14.9717 -34.4697 -25.2109 -76.7256 -29.8037 -104.779
c-15.2812 -93.3047 -16.0635 -194.239 -2.15332 -276.928c14.6084 -86.8213 40.3145 -140.374 67.2637 -140.374c0.308594 0 0.613281 0.00390625 0.921875 0.0205078c23.6426 1.07031 42.666 36.8594 48.46 91.1777c2.2334 20.8975 20.9863 36.0176 41.8877 33.8096z" />
    <glyph glyph-name="d" unicode="d" horiz-adv-x="330" 
d="M248.672 68.3711c-31.8516 -45.9736 -76.9668 -96.0684 -150.3 -96.0684c-10.8818 0 -22.3857 1.10352 -34.5625 3.48438c-0.0126953 0.00390625 -0.0214844 0.0078125 -0.0341797 0.0078125c-3.77734 0.736328 -7.35938 2.03027 -10.6543 3.79785
c-0.680664 0.368164 -1.32324 0.782227 -1.97461 1.18359c-0.380859 0.237305 -0.774414 0.444336 -1.14648 0.694336c-0.680664 0.457031 -1.32324 0.956055 -1.9707 1.45117c-0.321289 0.245117 -0.655273 0.469727 -0.967773 0.723633
c-0.579102 0.469727 -1.11621 0.981445 -1.66211 1.48438c-0.355469 0.325195 -0.723633 0.629883 -1.06641 0.967773c-0.448242 0.444336 -0.858398 0.921875 -1.28516 1.38672c-0.401367 0.439453 -0.820312 0.866211 -1.20117 1.32715
c-0.330078 0.397461 -0.625977 0.816406 -0.938477 1.22656c-0.435547 0.566406 -0.875 1.12012 -1.27637 1.71191c-0.245117 0.359375 -0.457031 0.735352 -0.685547 1.09863c-0.422852 0.667969 -0.849609 1.33203 -1.23047 2.03027
c-0.194336 0.359375 -0.359375 0.735352 -0.545898 1.10352c-0.363281 0.714844 -0.731445 1.42969 -1.04883 2.17383c-0.186523 0.439453 -0.334961 0.891602 -0.508789 1.33594c-0.262695 0.685547 -0.538086 1.36621 -0.762695 2.07227
c-0.199219 0.62207 -0.347656 1.25684 -0.516602 1.8916c-0.143555 0.541016 -0.308594 1.07422 -0.426758 1.62793c-0.194336 0.892578 -0.325195 1.80566 -0.456055 2.71484c-0.0419922 0.3125 -0.109375 0.617188 -0.147461 0.93457
c-0.130859 1.10352 -0.194336 2.21973 -0.223633 3.34473c-0.00390625 0.139648 -0.0292969 0.275391 -0.0292969 0.418945v0.0800781c0 0.110352 -0.00390625 0.21582 -0.00390625 0.326172c-3.6377 219.121 -4.00977 422.424 -1.17578 639.756
c0.00390625 0.173828 0.0292969 0.338867 0.0332031 0.512695c0.0214844 0.794922 0.0810547 1.58203 0.15332 2.36914c0.046875 0.50293 0.0849609 1.00586 0.148438 1.50488c0.0888672 0.680664 0.211914 1.35352 0.338867 2.03027
c0.105469 0.575195 0.203125 1.15039 0.333984 1.7168c0.143555 0.613281 0.321289 1.20996 0.495117 1.81445c0.165039 0.583984 0.321289 1.16797 0.515625 1.73438c0.224609 0.664062 0.487305 1.31152 0.75 1.96289
c0.186523 0.460938 0.355469 0.925781 0.558594 1.37402c0.388672 0.875 0.824219 1.72559 1.28125 2.56738c0.101562 0.186523 0.19043 0.385742 0.295898 0.567383c3.69238 6.57715 9.34277 12.1348 16.6514 15.6533c42.666 20.5508 116.173 17.4678 165.322 -23.2236
c81.5723 -67.5391 95.4619 -221.282 97.6484 -284.249c4.40723 -126.924 -20.9141 -243.046 -67.7246 -310.623zM108.606 49.1553c24.0107 3.46777 47.8809 19.8447 77.4824 62.5703c36.6816 52.9482 57.9639 156.826 54.2207 264.634
c-3.69629 106.449 -31.2168 196.045 -70.1143 228.247c-18.5967 15.3906 -43.6348 19.3877 -62.5615 18.0342c-2.28809 -194.159 -1.97559 -378.087 0.972656 -573.485z" />
    <glyph glyph-name="e" unicode="e" 
d="M294.328 134.874c-15.2852 -143.283 -96.2656 -158.048 -120.72 -159.164c-1.72559 -0.0722656 -3.44238 -0.114258 -5.14258 -0.114258c-71.1846 0 -118.795 68.5547 -141.566 203.896c-15.2383 90.6104 -14.4727 200.63 2.10254 301.856
c11.5928 70.8047 35.6328 217.611 128.066 217.649h0.350586c10.502 0 41.0088 -0.295898 68.0518 -27.6006c31.9746 -32.291 68.3174 -104.081 65.5684 -374.859c-0.00390625 -0.34668 -0.0507812 -0.680664 -0.0634766 -1.02344
c-0.0253906 -0.680664 -0.0634766 -1.35352 -0.123047 -2.02148c-0.0546875 -0.600586 -0.126953 -1.19727 -0.207031 -1.79395c-0.0927734 -0.660156 -0.194336 -1.32031 -0.321289 -1.97168c-0.114258 -0.59668 -0.245117 -1.17578 -0.384766 -1.75977
c-0.152344 -0.629883 -0.317383 -1.24707 -0.499023 -1.86426c-0.173828 -0.587891 -0.364258 -1.16309 -0.563477 -1.73828c-0.207031 -0.587891 -0.422852 -1.16699 -0.655273 -1.74219s-0.482422 -1.1416 -0.745117 -1.7041
c-0.253906 -0.545898 -0.516602 -1.08691 -0.795898 -1.62012c-0.291992 -0.553711 -0.59668 -1.09961 -0.914062 -1.63672c-0.304688 -0.511719 -0.613281 -1.01953 -0.938477 -1.51855c-0.337891 -0.520508 -0.693359 -1.02344 -1.05664 -1.52637
c-0.350586 -0.482422 -0.709961 -0.964844 -1.08203 -1.42969c-0.380859 -0.477539 -0.77832 -0.942383 -1.17969 -1.39941s-0.811523 -0.905273 -1.23438 -1.34473c-0.414062 -0.426758 -0.84082 -0.836914 -1.27637 -1.24707
c-0.452148 -0.422852 -0.913086 -0.841797 -1.38672 -1.24805c-0.444336 -0.375977 -0.905273 -0.739258 -1.36621 -1.09863c-0.499023 -0.388672 -1.00684 -0.769531 -1.52734 -1.13281c-0.477539 -0.333984 -0.963867 -0.646484 -1.4541 -0.955078
c-0.537109 -0.342773 -1.08301 -0.676758 -1.6416 -0.989258c-0.511719 -0.287109 -1.03223 -0.553711 -1.55664 -0.820312c-0.566406 -0.283203 -1.13281 -0.5625 -1.7168 -0.820312c-0.553711 -0.245117 -1.11621 -0.464844 -1.68262 -0.68457
c-0.579102 -0.224609 -1.16309 -0.444336 -1.75488 -0.638672c-0.604492 -0.199219 -1.21387 -0.373047 -1.82715 -0.541992c-0.587891 -0.15625 -1.17188 -0.3125 -1.76855 -0.448242c-0.642578 -0.143555 -1.29395 -0.261719 -1.94922 -0.37207
c-0.59668 -0.101562 -1.18848 -0.199219 -1.79297 -0.271484c-0.660156 -0.0849609 -1.33301 -0.131836 -2.00586 -0.178711c-0.401367 -0.0253906 -0.794922 -0.0927734 -1.20117 -0.105469c-15.9365 -0.583984 -49.7969 -3.16016 -82.541 -5.65137
c-34.9727 -2.66016 -60.4121 -4.55469 -76.7461 -5.39648c1.63281 -19.2354 3.9043 -37.917 6.89844 -55.7139c14.6084 -86.8213 40.3145 -140.374 67.2646 -140.374c0.308594 0 0.613281 0.00390625 0.921875 0.0205078c23.6426 1.07031 42.666 36.8594 48.46 91.1777
c2.2334 20.8975 20.9785 36.0176 41.8887 33.8096c20.9062 -2.22852 36.043 -20.9863 33.8145 -41.8877zM104.17 469.31c-7.80762 -47.6826 -11.8164 -97.2715 -12.0537 -145.39c17.2598 0.921875 46.959 3.18066 73.9336 5.23145
c17.3613 1.32422 34.2412 2.60547 48.9805 3.6416c-0.765625 217.37 -30.4268 271.676 -43.6602 285.045c-4.00977 4.04785 -6.80957 5.03711 -14.249 5.03711c-2.13574 0.0888672 -14.9209 -8.09961 -28.5059 -46.418
c-12.8232 -36.1611 -20.0977 -80.5996 -24.4453 -107.147z" />
    <glyph glyph-name="e" unicode="&#xeb;" 
d="M294.328 134.874c-15.2852 -143.283 -96.2656 -158.048 -120.72 -159.164c-1.72559 -0.0722656 -3.44238 -0.114258 -5.14258 -0.114258c-71.1846 0 -118.795 68.5547 -141.566 203.896c-15.2383 90.6104 -14.4727 200.63 2.10254 301.856
c11.5928 70.8047 35.6328 217.611 128.066 217.649h0.350586c10.502 0 41.0088 -0.295898 68.0518 -27.6006c31.9746 -32.291 68.3174 -104.081 65.5684 -374.859c-0.00390625 -0.34668 -0.0507812 -0.680664 -0.0634766 -1.02344
c-0.0253906 -0.680664 -0.0634766 -1.35352 -0.123047 -2.02148c-0.0546875 -0.600586 -0.126953 -1.19727 -0.207031 -1.79395c-0.0927734 -0.660156 -0.194336 -1.32031 -0.321289 -1.97168c-0.114258 -0.59668 -0.245117 -1.17578 -0.384766 -1.75977
c-0.152344 -0.629883 -0.317383 -1.24707 -0.499023 -1.86426c-0.173828 -0.587891 -0.364258 -1.16309 -0.563477 -1.73828c-0.207031 -0.587891 -0.422852 -1.16699 -0.655273 -1.74219s-0.482422 -1.1416 -0.745117 -1.7041
c-0.253906 -0.545898 -0.516602 -1.08691 -0.795898 -1.62012c-0.291992 -0.553711 -0.59668 -1.09961 -0.914062 -1.63672c-0.304688 -0.511719 -0.613281 -1.01953 -0.938477 -1.51855c-0.337891 -0.520508 -0.693359 -1.02344 -1.05664 -1.52637
c-0.350586 -0.482422 -0.709961 -0.964844 -1.08203 -1.42969c-0.380859 -0.477539 -0.77832 -0.942383 -1.17969 -1.39941s-0.811523 -0.905273 -1.23438 -1.34473c-0.414062 -0.426758 -0.84082 -0.836914 -1.27637 -1.24707
c-0.452148 -0.422852 -0.913086 -0.841797 -1.38672 -1.24805c-0.444336 -0.375977 -0.905273 -0.739258 -1.36621 -1.09863c-0.499023 -0.388672 -1.00684 -0.769531 -1.52734 -1.13281c-0.477539 -0.333984 -0.963867 -0.646484 -1.4541 -0.955078
c-0.537109 -0.342773 -1.08301 -0.676758 -1.6416 -0.989258c-0.511719 -0.287109 -1.03223 -0.553711 -1.55664 -0.820312c-0.566406 -0.283203 -1.13281 -0.5625 -1.7168 -0.820312c-0.553711 -0.245117 -1.11621 -0.464844 -1.68262 -0.68457
c-0.579102 -0.224609 -1.16309 -0.444336 -1.75488 -0.638672c-0.604492 -0.199219 -1.21387 -0.373047 -1.82715 -0.541992c-0.587891 -0.15625 -1.17188 -0.3125 -1.76855 -0.448242c-0.642578 -0.143555 -1.29395 -0.261719 -1.94922 -0.37207
c-0.59668 -0.101562 -1.18848 -0.199219 -1.79297 -0.271484c-0.660156 -0.0849609 -1.33301 -0.131836 -2.00586 -0.178711c-0.401367 -0.0253906 -0.794922 -0.0927734 -1.20117 -0.105469c-15.9365 -0.583984 -49.7969 -3.16016 -82.541 -5.65137
c-34.9727 -2.66016 -60.4121 -4.55469 -76.7461 -5.39648c1.63281 -19.2354 3.9043 -37.917 6.89844 -55.7139c14.6084 -86.8213 40.3145 -140.374 67.2646 -140.374c0.308594 0 0.613281 0.00390625 0.921875 0.0205078c23.6426 1.07031 42.666 36.8594 48.46 91.1777
c2.2334 20.8975 20.9785 36.0176 41.8887 33.8096c20.9062 -2.22852 36.043 -20.9863 33.8145 -41.8877zM104.17 469.31c-7.80762 -47.6826 -11.8164 -97.2715 -12.0537 -145.39c17.2598 0.921875 46.959 3.18066 73.9336 5.23145
c17.3613 1.32422 34.2412 2.60547 48.9805 3.6416c-0.765625 217.37 -30.4268 271.676 -43.6602 285.045c-4.00977 4.04785 -6.80957 5.03711 -14.249 5.03711c-2.13574 0.0888672 -14.9209 -8.09961 -28.5059 -46.418
c-12.8232 -36.1611 -20.0977 -80.5996 -24.4453 -107.147z" />
    <glyph glyph-name="e" unicode="&#xea;" 
d="M294.328 134.874c-15.2852 -143.283 -96.2656 -158.048 -120.72 -159.164c-1.72559 -0.0722656 -3.44238 -0.114258 -5.14258 -0.114258c-71.1846 0 -118.795 68.5547 -141.566 203.896c-15.2383 90.6104 -14.4727 200.63 2.10254 301.856
c11.5928 70.8047 35.6328 217.611 128.066 217.649h0.350586c10.502 0 41.0088 -0.295898 68.0518 -27.6006c31.9746 -32.291 68.3174 -104.081 65.5684 -374.859c-0.00390625 -0.34668 -0.0507812 -0.680664 -0.0634766 -1.02344
c-0.0253906 -0.680664 -0.0634766 -1.35352 -0.123047 -2.02148c-0.0546875 -0.600586 -0.126953 -1.19727 -0.207031 -1.79395c-0.0927734 -0.660156 -0.194336 -1.32031 -0.321289 -1.97168c-0.114258 -0.59668 -0.245117 -1.17578 -0.384766 -1.75977
c-0.152344 -0.629883 -0.317383 -1.24707 -0.499023 -1.86426c-0.173828 -0.587891 -0.364258 -1.16309 -0.563477 -1.73828c-0.207031 -0.587891 -0.422852 -1.16699 -0.655273 -1.74219s-0.482422 -1.1416 -0.745117 -1.7041
c-0.253906 -0.545898 -0.516602 -1.08691 -0.795898 -1.62012c-0.291992 -0.553711 -0.59668 -1.09961 -0.914062 -1.63672c-0.304688 -0.511719 -0.613281 -1.01953 -0.938477 -1.51855c-0.337891 -0.520508 -0.693359 -1.02344 -1.05664 -1.52637
c-0.350586 -0.482422 -0.709961 -0.964844 -1.08203 -1.42969c-0.380859 -0.477539 -0.77832 -0.942383 -1.17969 -1.39941s-0.811523 -0.905273 -1.23438 -1.34473c-0.414062 -0.426758 -0.84082 -0.836914 -1.27637 -1.24707
c-0.452148 -0.422852 -0.913086 -0.841797 -1.38672 -1.24805c-0.444336 -0.375977 -0.905273 -0.739258 -1.36621 -1.09863c-0.499023 -0.388672 -1.00684 -0.769531 -1.52734 -1.13281c-0.477539 -0.333984 -0.963867 -0.646484 -1.4541 -0.955078
c-0.537109 -0.342773 -1.08301 -0.676758 -1.6416 -0.989258c-0.511719 -0.287109 -1.03223 -0.553711 -1.55664 -0.820312c-0.566406 -0.283203 -1.13281 -0.5625 -1.7168 -0.820312c-0.553711 -0.245117 -1.11621 -0.464844 -1.68262 -0.68457
c-0.579102 -0.224609 -1.16309 -0.444336 -1.75488 -0.638672c-0.604492 -0.199219 -1.21387 -0.373047 -1.82715 -0.541992c-0.587891 -0.15625 -1.17188 -0.3125 -1.76855 -0.448242c-0.642578 -0.143555 -1.29395 -0.261719 -1.94922 -0.37207
c-0.59668 -0.101562 -1.18848 -0.199219 -1.79297 -0.271484c-0.660156 -0.0849609 -1.33301 -0.131836 -2.00586 -0.178711c-0.401367 -0.0253906 -0.794922 -0.0927734 -1.20117 -0.105469c-15.9365 -0.583984 -49.7969 -3.16016 -82.541 -5.65137
c-34.9727 -2.66016 -60.4121 -4.55469 -76.7461 -5.39648c1.63281 -19.2354 3.9043 -37.917 6.89844 -55.7139c14.6084 -86.8213 40.3145 -140.374 67.2646 -140.374c0.308594 0 0.613281 0.00390625 0.921875 0.0205078c23.6426 1.07031 42.666 36.8594 48.46 91.1777
c2.2334 20.8975 20.9785 36.0176 41.8887 33.8096c20.9062 -2.22852 36.043 -20.9863 33.8145 -41.8877zM104.17 469.31c-7.80762 -47.6826 -11.8164 -97.2715 -12.0537 -145.39c17.2598 0.921875 46.959 3.18066 73.9336 5.23145
c17.3613 1.32422 34.2412 2.60547 48.9805 3.6416c-0.765625 217.37 -30.4268 271.676 -43.6602 285.045c-4.00977 4.04785 -6.80957 5.03711 -14.249 5.03711c-2.13574 0.0888672 -14.9209 -8.09961 -28.5059 -46.418
c-12.8232 -36.1611 -20.0977 -80.5996 -24.4453 -107.147z" />
    <glyph glyph-name="e" unicode="&#xe9;" 
d="M294.328 134.874c-15.2852 -143.283 -96.2656 -158.048 -120.72 -159.164c-1.72559 -0.0722656 -3.44238 -0.114258 -5.14258 -0.114258c-71.1846 0 -118.795 68.5547 -141.566 203.896c-15.2383 90.6104 -14.4727 200.63 2.10254 301.856
c11.5928 70.8047 35.6328 217.611 128.066 217.649h0.350586c10.502 0 41.0088 -0.295898 68.0518 -27.6006c31.9746 -32.291 68.3174 -104.081 65.5684 -374.859c-0.00390625 -0.34668 -0.0507812 -0.680664 -0.0634766 -1.02344
c-0.0253906 -0.680664 -0.0634766 -1.35352 -0.123047 -2.02148c-0.0546875 -0.600586 -0.126953 -1.19727 -0.207031 -1.79395c-0.0927734 -0.660156 -0.194336 -1.32031 -0.321289 -1.97168c-0.114258 -0.59668 -0.245117 -1.17578 -0.384766 -1.75977
c-0.152344 -0.629883 -0.317383 -1.24707 -0.499023 -1.86426c-0.173828 -0.587891 -0.364258 -1.16309 -0.563477 -1.73828c-0.207031 -0.587891 -0.422852 -1.16699 -0.655273 -1.74219s-0.482422 -1.1416 -0.745117 -1.7041
c-0.253906 -0.545898 -0.516602 -1.08691 -0.795898 -1.62012c-0.291992 -0.553711 -0.59668 -1.09961 -0.914062 -1.63672c-0.304688 -0.511719 -0.613281 -1.01953 -0.938477 -1.51855c-0.337891 -0.520508 -0.693359 -1.02344 -1.05664 -1.52637
c-0.350586 -0.482422 -0.709961 -0.964844 -1.08203 -1.42969c-0.380859 -0.477539 -0.77832 -0.942383 -1.17969 -1.39941s-0.811523 -0.905273 -1.23438 -1.34473c-0.414062 -0.426758 -0.84082 -0.836914 -1.27637 -1.24707
c-0.452148 -0.422852 -0.913086 -0.841797 -1.38672 -1.24805c-0.444336 -0.375977 -0.905273 -0.739258 -1.36621 -1.09863c-0.499023 -0.388672 -1.00684 -0.769531 -1.52734 -1.13281c-0.477539 -0.333984 -0.963867 -0.646484 -1.4541 -0.955078
c-0.537109 -0.342773 -1.08301 -0.676758 -1.6416 -0.989258c-0.511719 -0.287109 -1.03223 -0.553711 -1.55664 -0.820312c-0.566406 -0.283203 -1.13281 -0.5625 -1.7168 -0.820312c-0.553711 -0.245117 -1.11621 -0.464844 -1.68262 -0.68457
c-0.579102 -0.224609 -1.16309 -0.444336 -1.75488 -0.638672c-0.604492 -0.199219 -1.21387 -0.373047 -1.82715 -0.541992c-0.587891 -0.15625 -1.17188 -0.3125 -1.76855 -0.448242c-0.642578 -0.143555 -1.29395 -0.261719 -1.94922 -0.37207
c-0.59668 -0.101562 -1.18848 -0.199219 -1.79297 -0.271484c-0.660156 -0.0849609 -1.33301 -0.131836 -2.00586 -0.178711c-0.401367 -0.0253906 -0.794922 -0.0927734 -1.20117 -0.105469c-15.9365 -0.583984 -49.7969 -3.16016 -82.541 -5.65137
c-34.9727 -2.66016 -60.4121 -4.55469 -76.7461 -5.39648c1.63281 -19.2354 3.9043 -37.917 6.89844 -55.7139c14.6084 -86.8213 40.3145 -140.374 67.2646 -140.374c0.308594 0 0.613281 0.00390625 0.921875 0.0205078c23.6426 1.07031 42.666 36.8594 48.46 91.1777
c2.2334 20.8975 20.9785 36.0176 41.8887 33.8096c20.9062 -2.22852 36.043 -20.9863 33.8145 -41.8877zM104.17 469.31c-7.80762 -47.6826 -11.8164 -97.2715 -12.0537 -145.39c17.2598 0.921875 46.959 3.18066 73.9336 5.23145
c17.3613 1.32422 34.2412 2.60547 48.9805 3.6416c-0.765625 217.37 -30.4268 271.676 -43.6602 285.045c-4.00977 4.04785 -6.80957 5.03711 -14.249 5.03711c-2.13574 0.0888672 -14.9209 -8.09961 -28.5059 -46.418
c-12.8232 -36.1611 -20.0977 -80.5996 -24.4453 -107.147z" />
    <glyph glyph-name="f" unicode="f" horiz-adv-x="239" 
d="M181.2 281.871c-9.40625 -0.553711 -23.373 -0.735352 -38.417 -0.731445c-12.0664 0 -24.8008 0.118164 -36.4609 0.253906c0.375977 -90.6104 1.31934 -181.801 2.85059 -275.867c0.337891 -21.0205 -16.4229 -38.3398 -37.4434 -38.6826
c-0.207031 -0.00390625 -0.422852 -0.00390625 -0.629883 -0.00390625c-20.7324 0 -37.709 16.6387 -38.0469 37.4473c-3.6416 223.819 -4.01367 431.444 -1.17969 653.416c0 0.19043 0.0292969 0.376953 0.0332031 0.567383
c-0.0419922 0.710938 -0.109375 1.41309 -0.109375 2.13672c0 21.0244 17.04 38.0645 38.0645 38.0645c5.45996 0 14.7305 0.0849609 26.0312 0.182617c32.8369 0.279297 82.46 0.71875 107.621 -0.207031c21.0078 -0.769531 37.4141 -18.4277 36.6445 -39.4355
c-0.75293 -20.5342 -17.6367 -36.6689 -38.0137 -36.6689c-0.473633 0 -0.947266 0.00878906 -1.4209 0.0253906c-20.8936 0.774414 -61.7373 0.516602 -93.1406 0.253906c-1.01953 -89.79 -1.50195 -177.479 -1.44727 -265.095
c24.5859 -0.295898 55.9131 -0.52832 70.585 0.342773c20.9609 1.26855 39.0039 -14.7734 40.2393 -35.7598c1.23926 -20.9863 -14.7734 -39.0039 -35.7598 -40.2393z" />
    <glyph glyph-name="g" unicode="g" horiz-adv-x="315" 
d="M287.649 107.277c-16.0635 -82.1309 -53.9062 -126.356 -112.462 -131.444c-2.8291 -0.25 -5.77246 -0.389648 -8.80469 -0.389648c-29.8252 0 -68.5449 13.4287 -98.9463 70.1621c-17.4121 32.4941 -31.0479 77.5459 -40.5303 133.898
c-15.2432 90.6064 -14.4775 200.626 2.09766 301.856c2.58887 15.8057 12.7646 71.3711 35.1045 122.805c27.3174 62.916 62.8652 94.8271 105.646 94.8438h0.0302734c57.1562 0 98.2275 -53.9844 109.888 -144.435c2.68945 -20.8506 -12.0332 -39.9297 -32.8838 -42.6152
c-20.8594 -2.70703 -39.9297 12.0322 -42.6191 32.8828c-7.02051 54.4785 -26.167 78.04 -34.3848 78.0361c-3.77246 0 -18.4658 -9.0127 -35.8486 -49.04c-14.9717 -34.4697 -25.2109 -76.7256 -29.8037 -104.779c-15.2812 -93.3086 -16.0684 -194.239 -2.15332 -276.928
c14.4395 -85.8486 39.8535 -140.53 65.0947 -140.53c0.50293 0 1.01074 0.0253906 1.51367 0.0673828c55.1934 4.80469 54.1865 155.828 53.4297 247.026c-12.2783 -0.219727 -24.7471 -0.671875 -42.5908 -1.61914
c-0.689453 -0.0380859 -1.37012 -0.0546875 -2.05078 -0.0546875c-20.0938 0 -36.8975 15.7373 -37.9756 36.0469c-1.11621 20.9902 15.002 38.9102 35.9922 40.0264c36.415 1.93262 52.4785 1.93262 84.4785 1.93262c21.0244 0 38.0645 -17.04 38.0645 -38.0645
c0 -0.207031 -0.0253906 -0.410156 -0.0292969 -0.617188c0 -0.207031 0.0292969 -0.410156 0.0292969 -0.617188c0 -11.2168 0.0976562 -22.9912 0.199219 -35.1377c0.520508 -62.8193 1.1123 -134.017 -10.4844 -193.312z" />
    <glyph glyph-name="h" unicode="h" horiz-adv-x="330" 
d="M71.1035 -37.0088c-20.7363 0 -37.7148 16.6426 -38.0527 37.4551c-3.6377 226.403 -4.01367 436.431 -1.17969 660.974c0.262695 20.8594 17.2568 37.5869 38.0527 37.5869c0.165039 0 0.326172 0 0.491211 -0.00390625
c21.0205 -0.262695 37.8496 -17.5186 37.583 -38.5391c-1.26074 -99.8945 -1.87793 -196.9 -1.86133 -293.767c18.2588 0.486328 40.3867 1.13379 61.1064 1.74316c19.9922 0.587891 39.2314 1.15039 54.4912 1.55664c-0.00390625 96.1006 0.618164 192.357 1.87012 291.427
c0.262695 20.8594 17.2568 37.5869 38.0527 37.5869c0.165039 0 0.326172 0 0.491211 -0.00390625c21.0205 -0.262695 37.8447 -17.5186 37.5781 -38.5391c-2.8252 -223.73 -2.44922 -433.068 1.17969 -658.795c0.337891 -21.0205 -16.4277 -38.3359 -37.4482 -38.6738
c-0.203125 -0.00390625 -0.415039 -0.00390625 -0.62207 -0.00390625c-20.7363 0 -37.7129 16.6387 -38.0469 37.4512c-1.61133 100.127 -2.58008 197.035 -2.91797 293.402c-14.8193 -0.397461 -33.2637 -0.938477 -52.3975 -1.50098
c-22.2002 -0.651367 -44.7559 -1.31543 -63.1963 -1.79785c0.34668 -94.8906 1.31055 -190.327 2.89648 -288.881c0.337891 -21.0205 -16.4277 -38.3359 -37.4482 -38.6738c-0.203125 -0.00390625 -0.415039 -0.00390625 -0.62207 -0.00390625z" />
    <glyph glyph-name="i" unicode="i" horiz-adv-x="139" 
d="M71.1074 -37.0088c-20.7363 0 -37.7148 16.6436 -38.0527 37.4561c-3.6416 226.454 -4.01758 436.481 -1.18359 660.974c0.262695 20.8594 17.2568 37.5869 38.0527 37.5869c0.165039 0 0.326172 0 0.491211 -0.00390625
c21.0205 -0.262695 37.8496 -17.5186 37.583 -38.5391c-2.8252 -223.752 -2.44922 -433.086 1.17969 -658.796c0.337891 -21.0205 -16.4277 -38.3359 -37.4482 -38.6738c-0.203125 -0.00390625 -0.415039 -0.00390625 -0.62207 -0.00390625z" />
    <glyph glyph-name="i" unicode="&#xef;" horiz-adv-x="139" 
d="M71.1074 -37.0088c-20.7363 0 -37.7148 16.6436 -38.0527 37.4561c-3.6416 226.454 -4.01758 436.481 -1.18359 660.974c0.262695 20.8594 17.2568 37.5869 38.0527 37.5869c0.165039 0 0.326172 0 0.491211 -0.00390625
c21.0205 -0.262695 37.8496 -17.5186 37.583 -38.5391c-2.8252 -223.752 -2.44922 -433.086 1.17969 -658.796c0.337891 -21.0205 -16.4277 -38.3359 -37.4482 -38.6738c-0.203125 -0.00390625 -0.415039 -0.00390625 -0.62207 -0.00390625z" />
    <glyph glyph-name="i" unicode="&#xee;" horiz-adv-x="139" 
d="M71.1074 -37.0088c-20.7363 0 -37.7148 16.6436 -38.0527 37.4561c-3.6416 226.454 -4.01758 436.481 -1.18359 660.974c0.262695 20.8594 17.2568 37.5869 38.0527 37.5869c0.165039 0 0.326172 0 0.491211 -0.00390625
c21.0205 -0.262695 37.8496 -17.5186 37.583 -38.5391c-2.8252 -223.752 -2.44922 -433.086 1.17969 -658.796c0.337891 -21.0205 -16.4277 -38.3359 -37.4482 -38.6738c-0.203125 -0.00390625 -0.415039 -0.00390625 -0.62207 -0.00390625z" />
    <glyph glyph-name="i" unicode="&#xed;" horiz-adv-x="139" 
d="M71.1074 -37.0088c-20.7363 0 -37.7148 16.6436 -38.0527 37.4561c-3.6416 226.454 -4.01758 436.481 -1.18359 660.974c0.262695 20.8594 17.2568 37.5869 38.0527 37.5869c0.165039 0 0.326172 0 0.491211 -0.00390625
c21.0205 -0.262695 37.8496 -17.5186 37.583 -38.5391c-2.8252 -223.752 -2.44922 -433.086 1.17969 -658.796c0.337891 -21.0205 -16.4277 -38.3359 -37.4482 -38.6738c-0.203125 -0.00390625 -0.415039 -0.00390625 -0.62207 -0.00390625z" />
    <glyph glyph-name="j" unicode="j" horiz-adv-x="267" 
d="M238.833 571.106c6.95312 -287.603 7.13281 -512.729 -57.4707 -577.321c-14.0879 -14.0801 -31.2764 -21.4902 -49.8096 -21.4902c-0.566406 0 -1.13281 0.00390625 -1.7041 0.0205078c-73.4053 1.79297 -91.8584 103.045 -99.7295 191.059
c-8.08203 90.3486 -6.32227 199.768 -4.90918 287.684c0.375977 23.2832 0.726562 45.2715 0.836914 64.1553c0.123047 20.9443 17.1426 37.8408 38.0615 37.8408h0.228516c21.0205 -0.126953 37.9639 -17.2646 37.8408 -38.2891
c-0.114258 -19.2734 -0.469727 -41.4521 -0.845703 -64.9336c-1.25195 -77.8164 -2.80859 -174.661 2.8125 -256.729c6.52637 -95.3047 20.3564 -129.212 27.3135 -140.555c8.16309 12.9629 24.8057 54.6904 31.3867 183.514
c5.38379 105.346 2.33008 231.687 -0.123047 333.205c-0.431641 17.8311 -0.850586 35.0996 -1.20117 51.4883c-10.8271 -0.321289 -23.3965 -0.617188 -37.8438 -0.938477c-21.6924 -0.482422 -48.6973 -1.08301 -55.2236 -1.83203
c-1.47168 -0.168945 -2.93945 -0.253906 -4.38574 -0.253906c-19.083 0 -35.5439 14.3164 -37.7686 33.7334c-2.39355 20.8848 12.5957 39.7607 33.4805 42.1543c9.5293 1.0957 29.8477 1.59082 62.2109 2.30957c25.1016 0.558594 63.0312 1.40039 71.0205 2.62305
c0.219727 0.0341797 0.435547 0.0380859 0.655273 0.0673828c0.698242 0.0976562 1.40039 0.161133 2.11133 0.21582c0.587891 0.046875 1.17578 0.0976562 1.75977 0.114258c0.266602 0.00878906 0.524414 0.046875 0.791016 0.0507812
c0.177734 0.00390625 0.364258 0.00390625 0.541992 0.00390625c0.363281 0 0.709961 -0.046875 1.06934 -0.0556641c0.524414 -0.0166016 1.04492 -0.0419922 1.56543 -0.0800781c0.803711 -0.0546875 1.59863 -0.130859 2.38965 -0.236328
c0.384766 -0.0546875 0.769531 -0.114258 1.1543 -0.177734c0.921875 -0.152344 1.83105 -0.333984 2.73145 -0.549805c0.228516 -0.0546875 0.457031 -0.114258 0.685547 -0.173828c1.03223 -0.270508 2.04688 -0.579102 3.04492 -0.929688
c0.0927734 -0.0341797 0.19043 -0.0683594 0.283203 -0.102539c1.10352 -0.401367 2.18164 -0.845703 3.23926 -1.34473c0.00390625 0 0.0078125 -0.00390625 0.0117188 -0.00390625c5.56543 -2.62207 10.3867 -6.54688 14.083 -11.3984
c4.4873 -5.8916 7.28711 -13.124 7.69727 -21.0205c0.00390625 -0.0380859 0.0078125 -0.0761719 0.0078125 -0.114258c0.0214844 -0.452148 0.0761719 -0.891602 0.0849609 -1.34375c0.375977 -26.582 1.12012 -57.5625 1.91504 -90.3652z" />
    <glyph glyph-name="k" unicode="k" horiz-adv-x="272" 
d="M71.1035 -37.0088c-20.7412 0 -37.7217 16.6475 -38.0557 37.4561c-3.6377 228.324 -4.01367 440.056 -1.17969 666.337c0.262695 20.8594 17.2568 37.5908 38.0527 37.5908h0.482422c21.0205 -0.257812 37.8496 -17.5137 37.5869 -38.5342
c-1.4375 -114.946 -2.04199 -226.129 -1.81348 -337.653c32.5449 49.3271 66.9424 146.747 67.3438 338.207c0.046875 20.9902 17.083 37.9844 38.0654 37.9844h0.0839844c21.0205 -0.046875 38.0273 -17.1211 37.9854 -38.1455
c-0.464844 -224.086 -45.7998 -341.646 -96.6709 -402.973c67.082 -40.3525 103.243 -127.245 103.243 -251.944c0 -21.0244 -17.04 -38.0645 -38.0645 -38.0645s-38.0645 17.04 -38.0645 38.0645c0 79.4199 -16.1396 138.513 -46.6758 170.889
c-8.9873 9.5293 -18.1738 15.7129 -26.6279 19.8535c0.507812 -65.877 1.29492 -132.389 2.37793 -200.394c0.337891 -21.0205 -16.4316 -38.3359 -37.4521 -38.6699c-0.203125 -0.00390625 -0.410156 -0.00390625 -0.617188 -0.00390625z" />
    <glyph glyph-name="l" unicode="l" horiz-adv-x="207" 
d="M33.2002 5.2002c-0.0546875 0.740234 -0.139648 1.47363 -0.152344 2.22266c-3.6377 225.93 -4.01367 435.449 -1.17969 659.37c0.262695 20.8555 17.2568 37.583 38.0527 37.583c0.165039 0 0.330078 0 0.491211 -0.00878906
c21.0205 -0.262695 37.8447 -17.5186 37.5781 -38.543c-2.68945 -212.857 -2.46484 -412.7 0.707031 -626.103c24.5479 -0.422852 54.5684 -0.883789 66.3477 -0.40625c21.0156 0.756836 38.7158 -15.501 39.5615 -36.5088
c0.845703 -20.999 -15.501 -38.7158 -36.5039 -39.5615c-4.54688 -0.181641 -10.8701 -0.257812 -18.2461 -0.257812c-17.1543 0 -40.0098 0.397461 -59.5322 0.735352c-12.8574 0.224609 -23.7393 0.418945 -29.2119 0.418945c-21.0244 0 -38.0645 17.04 -38.0645 38.0645
c0 1.01074 0.0761719 2.00488 0.152344 2.99414z" />
    <glyph glyph-name="m" unicode="m" horiz-adv-x="395" 
d="M363.969 661.962c-2.57129 -218.922 0.328125 -410.825 3.38184 -613.988l0.638672 -42.3105c0.3125 -21.0205 -16.4697 -38.3184 -37.4902 -38.6309c-0.194336 -0.00390625 -0.388672 -0.00390625 -0.583008 -0.00390625c-20.7578 0 -37.7344 16.668 -38.0469 37.4932
l-0.634766 42.2979c-2.00098 132.511 -3.9209 260.285 -4.31445 393.93c-31.0859 -89.2236 -58.4082 -169.27 -58.916 -170.763c-5.24902 -15.3945 -19.6924 -25.748 -35.9541 -25.7773h-0.0722656c-16.2324 0 -30.6846 10.2939 -35.9795 25.6426
c-1.81055 5.24902 -23.9434 69.4346 -49.8311 147.581c-0.253906 -135.895 0.671875 -270.63 2.78223 -411.773c0.3125 -21.0205 -16.4697 -38.3184 -37.4902 -38.6309c-0.194336 -0.00390625 -0.388672 -0.00390625 -0.583008 -0.00390625
c-20.7578 0 -37.7344 16.668 -38.0469 37.4932c-3.375 225.672 -3.72559 435.002 -1.09473 658.767c0.25 20.8721 17.2441 37.6201 38.0566 37.6201c0.152344 0 0.304688 0 0.457031 -0.00390625c19.0869 -0.219727 34.6807 -14.4727 37.21 -32.8281
c19.3662 -70.0771 56.7373 -184.279 84.7617 -267.975c31.2129 90.3105 74.7422 214.917 98.1396 275.935c0.0722656 0.194336 0.169922 0.368164 0.246094 0.558594c0.300781 0.744141 0.625977 1.47168 0.96875 2.19043
c0.21582 0.452148 0.431641 0.900391 0.660156 1.33984c0.325195 0.617188 0.675781 1.21387 1.03125 1.81055c0.304688 0.507812 0.609375 1.01953 0.93457 1.50977c0.317383 0.477539 0.660156 0.938477 0.998047 1.40332
c0.401367 0.553711 0.807617 1.10352 1.23926 1.63184c0.317383 0.384766 0.651367 0.75293 0.981445 1.125c0.486328 0.545898 0.96875 1.0918 1.48047 1.60742c0.355469 0.355469 0.727539 0.685547 1.09082 1.02832c0.515625 0.482422 1.02734 0.959961 1.56445 1.4082
c0.448242 0.37207 0.917969 0.714844 1.37891 1.06543c0.486328 0.368164 0.963867 0.740234 1.4668 1.08301c0.583984 0.401367 1.18848 0.764648 1.79297 1.13281c0.410156 0.245117 0.811523 0.507812 1.23047 0.740234
c0.710938 0.393555 1.44727 0.749023 2.18359 1.09961c0.34668 0.165039 0.689453 0.342773 1.04004 0.499023c0.774414 0.342773 1.57422 0.638672 2.37402 0.925781c0.350586 0.126953 0.693359 0.266602 1.04883 0.380859
c0.756836 0.25 1.53516 0.457031 2.31348 0.65625c0.435547 0.114258 0.867188 0.237305 1.30664 0.334961c0.676758 0.148438 1.37012 0.258789 2.05957 0.373047c0.571289 0.0927734 1.14258 0.194336 1.71777 0.261719
c0.579102 0.0634766 1.16699 0.101562 1.75488 0.143555c0.702148 0.0507812 1.40039 0.0976562 2.10645 0.106445c0.186523 0.00390625 0.373047 0.0292969 0.563477 0.0292969c0.152344 0 0.304688 0 0.457031 -0.00390625
c0.283203 -0.00390625 0.558594 -0.0419922 0.841797 -0.0507812c0.731445 -0.0253906 1.45898 -0.0673828 2.19043 -0.134766c0.591797 -0.0546875 1.17969 -0.12207 1.76367 -0.202148c0.613281 -0.0849609 1.22266 -0.186523 1.83594 -0.300781
c0.702148 -0.130859 1.3916 -0.279297 2.08105 -0.453125c0.490234 -0.123047 0.980469 -0.253906 1.4707 -0.397461c0.77832 -0.224609 1.54004 -0.474609 2.29297 -0.745117c0.237305 -0.0849609 0.474609 -0.144531 0.711914 -0.233398
c0.203125 -0.0800781 0.393555 -0.181641 0.59668 -0.266602c0.744141 -0.300781 1.46777 -0.625977 2.18652 -0.96875c0.457031 -0.219727 0.90918 -0.435547 1.35352 -0.672852c0.617188 -0.325195 1.21777 -0.671875 1.81445 -1.03125
c0.511719 -0.308594 1.02344 -0.617188 1.51855 -0.947266c0.482422 -0.321289 0.952148 -0.65918 1.41699 -1.00586c0.553711 -0.40625 1.10352 -0.816406 1.63184 -1.25195c0.388672 -0.321289 0.760742 -0.655273 1.13672 -0.993164
c0.545898 -0.486328 1.08691 -0.972656 1.59863 -1.48828c0.355469 -0.355469 0.693359 -0.727539 1.03125 -1.0957c0.477539 -0.520508 0.955078 -1.04102 1.40332 -1.58691c0.359375 -0.431641 0.693359 -0.883789 1.03125 -1.33203
c0.380859 -0.50293 0.761719 -1.00195 1.11719 -1.52637c0.368164 -0.541016 0.706055 -1.09961 1.04395 -1.6582c0.283203 -0.464844 0.566406 -0.925781 0.829102 -1.39941c0.34668 -0.634766 0.664062 -1.28613 0.976562 -1.9375
c0.207031 -0.435547 0.422852 -0.871094 0.613281 -1.31055c0.295898 -0.685547 0.558594 -1.38379 0.8125 -2.08594c0.168945 -0.460938 0.337891 -0.913086 0.486328 -1.37793c0.211914 -0.667969 0.393555 -1.34082 0.571289 -2.02148
c0.139648 -0.549805 0.283203 -1.09961 0.401367 -1.65332c0.126953 -0.591797 0.228516 -1.19238 0.326172 -1.79688c0.114258 -0.672852 0.211914 -1.34961 0.288086 -2.03027c0.0546875 -0.507812 0.0927734 -1.01562 0.126953 -1.53125
c0.0546875 -0.787109 0.0888672 -1.57422 0.0927734 -2.36914c0 -0.219727 0.0292969 -0.435547 0.0253906 -0.655273z" />
    <glyph glyph-name="n" unicode="n" horiz-adv-x="346" 
d="M278.428 -37.0088c-10.2646 0 -19.5938 4.08496 -26.458 10.7207c-6.35645 4.64844 -11.334 11.3018 -13.8506 19.4014c-23.4941 75.5791 -46.3242 146.303 -68.4014 214.7c-21.4766 66.5322 -42.3828 131.331 -63.5635 199.289
c-0.177734 -133.742 0.655273 -266.541 2.52051 -405.527c0.283203 -21.0244 -16.5283 -38.293 -37.5488 -38.5723c-0.173828 -0.00390625 -0.347656 -0.00390625 -0.521484 -0.00390625c-20.7871 0 -37.7725 16.7061 -38.0518 37.5527
c-3.04492 227.055 -3.3623 437.632 -0.989258 662.699c0.224609 20.8809 17.2227 37.6631 38.0566 37.6631c0.139648 0 0.275391 0 0.411133 -0.00390625c17.7383 -0.186523 32.4736 -12.498 36.5215 -28.9678c0.638672 -1.49707 1.22266 -3.03223 1.6748 -4.64355
c45.7539 -162.265 86.7793 -289.972 129.906 -423.6c-0.672852 139.304 -0.253906 276.51 1.25195 419.548c0.224609 20.8809 17.2227 37.6631 38.0566 37.6631c0.139648 0 0.275391 0 0.411133 -0.00390625c21.0205 -0.219727 37.8828 -17.4414 37.6631 -38.4619
c-2.36816 -224.416 -2.05078 -434.414 0.981445 -660.877c0.283203 -21.0244 -16.5283 -38.293 -37.5488 -38.5723c-0.173828 -0.00390625 -0.347656 -0.00390625 -0.521484 -0.00390625z" />
    <glyph glyph-name="o" unicode="o" horiz-adv-x="331" 
d="M54.2188 78.8467c-19.0449 44.8105 -31.6865 102.208 -35.5986 161.605c-15.8691 240.852 41.8916 440.073 131.5 453.553c26.0449 3.89941 51.1045 -3.3877 72.4756 -21.1172c80.1641 -66.5029 89.9258 -272.703 90.7764 -295.994
c3.67969 -100.905 -7.13086 -200.127 -29.6611 -272.217c-2.58008 -8.25977 -5.31641 -16.2451 -8.13281 -23.7393c-10.3877 -27.6436 -22.3105 -49.7891 -35.4346 -65.8223c-20.1025 -24.5732 -45.5381 -37.4902 -71.8955 -37.4902
c-11.4238 0 -23.0166 2.42383 -34.4355 7.37598c-31.8477 13.8047 -59.373 46.2568 -79.5938 93.8457zM114.563 519.884c-13.9023 -52.5586 -28.6475 -142.832 -19.9727 -274.421c3.3623 -51.0957 13.9102 -99.6914 29.6982 -136.843
c14.0244 -33.002 29.7617 -49.4209 39.8105 -53.7773c2.99023 -1.29004 7.51562 -3.25684 17.125 8.47949c5.40527 6.60645 13.792 19.6621 23.0879 44.3955c2.31348 6.1582 4.58008 12.7734 6.73242 19.667c20.0596 64.1807 29.6221 154.114 26.2471 246.733
c-3.46777 95.123 -28.0957 210.971 -63.3057 240.179c-5.23633 4.33984 -8.69629 4.80078 -11.4619 4.55957c-6.2168 -3.57422 -29.2246 -28.126 -47.9609 -98.9727z" />
    <glyph glyph-name="o" unicode="&#xf6;" horiz-adv-x="331" 
d="M54.2188 78.8467c-19.0449 44.8105 -31.6865 102.208 -35.5986 161.605c-15.8691 240.852 41.8916 440.073 131.5 453.553c26.0449 3.89941 51.1045 -3.3877 72.4756 -21.1172c80.1641 -66.5029 89.9258 -272.703 90.7764 -295.994
c3.67969 -100.905 -7.13086 -200.127 -29.6611 -272.217c-2.58008 -8.25977 -5.31641 -16.2451 -8.13281 -23.7393c-10.3877 -27.6436 -22.3105 -49.7891 -35.4346 -65.8223c-20.1025 -24.5732 -45.5381 -37.4902 -71.8955 -37.4902
c-11.4238 0 -23.0166 2.42383 -34.4355 7.37598c-31.8477 13.8047 -59.373 46.2568 -79.5938 93.8457zM114.563 519.884c-13.9023 -52.5586 -28.6475 -142.832 -19.9727 -274.421c3.3623 -51.0957 13.9102 -99.6914 29.6982 -136.843
c14.0244 -33.002 29.7617 -49.4209 39.8105 -53.7773c2.99023 -1.29004 7.51562 -3.25684 17.125 8.47949c5.40527 6.60645 13.792 19.6621 23.0879 44.3955c2.31348 6.1582 4.58008 12.7734 6.73242 19.667c20.0596 64.1807 29.6221 154.114 26.2471 246.733
c-3.46777 95.123 -28.0957 210.971 -63.3057 240.179c-5.23633 4.33984 -8.69629 4.80078 -11.4619 4.55957c-6.2168 -3.57422 -29.2246 -28.126 -47.9609 -98.9727z" />
    <glyph glyph-name="o" unicode="&#xf5;" horiz-adv-x="331" 
d="M54.2188 78.8467c-19.0449 44.8105 -31.6865 102.208 -35.5986 161.605c-15.8691 240.852 41.8916 440.073 131.5 453.553c26.0449 3.89941 51.1045 -3.3877 72.4756 -21.1172c80.1641 -66.5029 89.9258 -272.703 90.7764 -295.994
c3.67969 -100.905 -7.13086 -200.127 -29.6611 -272.217c-2.58008 -8.25977 -5.31641 -16.2451 -8.13281 -23.7393c-10.3877 -27.6436 -22.3105 -49.7891 -35.4346 -65.8223c-20.1025 -24.5732 -45.5381 -37.4902 -71.8955 -37.4902
c-11.4238 0 -23.0166 2.42383 -34.4355 7.37598c-31.8477 13.8047 -59.373 46.2568 -79.5938 93.8457zM114.563 519.884c-13.9023 -52.5586 -28.6475 -142.832 -19.9727 -274.421c3.3623 -51.0957 13.9102 -99.6914 29.6982 -136.843
c14.0244 -33.002 29.7617 -49.4209 39.8105 -53.7773c2.99023 -1.29004 7.51562 -3.25684 17.125 8.47949c5.40527 6.60645 13.792 19.6621 23.0879 44.3955c2.31348 6.1582 4.58008 12.7734 6.73242 19.667c20.0596 64.1807 29.6221 154.114 26.2471 246.733
c-3.46777 95.123 -28.0957 210.971 -63.3057 240.179c-5.23633 4.33984 -8.69629 4.80078 -11.4619 4.55957c-6.2168 -3.57422 -29.2246 -28.126 -47.9609 -98.9727z" />
    <glyph glyph-name="o" unicode="&#xf4;" horiz-adv-x="331" 
d="M54.2188 78.8467c-19.0449 44.8105 -31.6865 102.208 -35.5986 161.605c-15.8691 240.852 41.8916 440.073 131.5 453.553c26.0449 3.89941 51.1045 -3.3877 72.4756 -21.1172c80.1641 -66.5029 89.9258 -272.703 90.7764 -295.994
c3.67969 -100.905 -7.13086 -200.127 -29.6611 -272.217c-2.58008 -8.25977 -5.31641 -16.2451 -8.13281 -23.7393c-10.3877 -27.6436 -22.3105 -49.7891 -35.4346 -65.8223c-20.1025 -24.5732 -45.5381 -37.4902 -71.8955 -37.4902
c-11.4238 0 -23.0166 2.42383 -34.4355 7.37598c-31.8477 13.8047 -59.373 46.2568 -79.5938 93.8457zM114.563 519.884c-13.9023 -52.5586 -28.6475 -142.832 -19.9727 -274.421c3.3623 -51.0957 13.9102 -99.6914 29.6982 -136.843
c14.0244 -33.002 29.7617 -49.4209 39.8105 -53.7773c2.99023 -1.29004 7.51562 -3.25684 17.125 8.47949c5.40527 6.60645 13.792 19.6621 23.0879 44.3955c2.31348 6.1582 4.58008 12.7734 6.73242 19.667c20.0596 64.1807 29.6221 154.114 26.2471 246.733
c-3.46777 95.123 -28.0957 210.971 -63.3057 240.179c-5.23633 4.33984 -8.69629 4.80078 -11.4619 4.55957c-6.2168 -3.57422 -29.2246 -28.126 -47.9609 -98.9727z" />
    <glyph glyph-name="o" unicode="&#xf3;" horiz-adv-x="331" 
d="M54.2188 78.8467c-19.0449 44.8105 -31.6865 102.208 -35.5986 161.605c-15.8691 240.852 41.8916 440.073 131.5 453.553c26.0449 3.89941 51.1045 -3.3877 72.4756 -21.1172c80.1641 -66.5029 89.9258 -272.703 90.7764 -295.994
c3.67969 -100.905 -7.13086 -200.127 -29.6611 -272.217c-2.58008 -8.25977 -5.31641 -16.2451 -8.13281 -23.7393c-10.3877 -27.6436 -22.3105 -49.7891 -35.4346 -65.8223c-20.1025 -24.5732 -45.5381 -37.4902 -71.8955 -37.4902
c-11.4238 0 -23.0166 2.42383 -34.4355 7.37598c-31.8477 13.8047 -59.373 46.2568 -79.5938 93.8457zM114.563 519.884c-13.9023 -52.5586 -28.6475 -142.832 -19.9727 -274.421c3.3623 -51.0957 13.9102 -99.6914 29.6982 -136.843
c14.0244 -33.002 29.7617 -49.4209 39.8105 -53.7773c2.99023 -1.29004 7.51562 -3.25684 17.125 8.47949c5.40527 6.60645 13.792 19.6621 23.0879 44.3955c2.31348 6.1582 4.58008 12.7734 6.73242 19.667c20.0596 64.1807 29.6221 154.114 26.2471 246.733
c-3.46777 95.123 -28.0957 210.971 -63.3057 240.179c-5.23633 4.33984 -8.69629 4.80078 -11.4619 4.55957c-6.2168 -3.57422 -29.2246 -28.126 -47.9609 -98.9727z" />
    <glyph glyph-name="p" unicode="p" horiz-adv-x="293" 
d="M32.0547 13.1309c-3.6416 217.378 -4.0166 418.991 -1.17871 634.483c0.00390625 0.232422 0.0332031 0.452148 0.0419922 0.680664c-0.702148 16.4229 9.35156 32.0332 25.6982 37.624c34.6094 11.8428 108.298 17.4805 158.691 -17.7969
c41.5371 -29.0811 67.9033 -81.1572 74.2471 -146.628c7.27441 -75.0713 -13.8047 -152.456 -52.4531 -192.563c-39.7559 -41.249 -93.6299 -52.4531 -131.724 -57.8711c0.410156 -84.292 1.33594 -169.188 2.79883 -256.661
c0.350586 -21.0156 -16.4023 -38.3389 -37.4229 -38.6943c-0.21582 -0.00390625 -0.435547 -0.00390625 -0.651367 -0.00390625c-20.7285 0 -37.7012 16.626 -38.0479 37.4307zM171.643 605.76c-16.1309 11.292 -42.7969 14.4619 -64.9971 12.8125
c-1.09082 -91.6895 -1.59375 -181.095 -1.50098 -270.496c26.5352 4.50391 57.0752 12.874 77.1309 33.6826c22.9609 23.8281 36.5039 80.7471 31.501 132.396c-4.09863 42.3447 -19.46 75.7314 -42.1338 91.6045z" />
    <glyph glyph-name="q" unicode="q" horiz-adv-x="331" 
d="M275.425 100.011c0 0 -0.00585938 0 -0.00195312 0c-7.50684 -19.2734 -15.8135 -35.7432 -24.7842 -49.2988c17.9922 -3.33691 31.4629 -19.248 31.0869 -38.1406c-0.418945 -21.0156 -17.6963 -37.8145 -38.8184 -37.2939
c-48.8965 0.976562 -97.2344 -1.27734 -143.716 -6.7041c-1.50098 -0.173828 -2.98926 -0.262695 -4.46094 -0.262695c-19.0488 0 -35.4971 14.2744 -37.7598 33.6582c-2.30469 19.7471 10.9502 37.7051 30.0586 41.6592
c-12.2227 14.7314 -23.2021 32.9092 -32.6123 54.2803c-19.1426 43.4912 -31.8516 99.1797 -35.7852 156.801c-15.9238 233.336 41.9219 426.319 131.687 439.346c26.4424 3.85254 51.8271 -3.65039 73.4521 -21.6553c79.0938 -65.8682 88.7666 -263.402 89.6084 -285.708
c3.68848 -97.6992 -7.16406 -193.791 -29.7783 -263.647c-2.58887 -7.99316 -5.3418 -15.7461 -8.17578 -23.0332zM162.143 618.826c-19.6201 -9.5166 -83.8848 -119.733 -67.5635 -358.931c3.29883 -48.3418 14.0586 -96.2012 29.5127 -131.313
c17.4883 -39.7227 34.7021 -49.4463 39.5615 -51.4805c3.26465 -1.35352 8.19629 -3.43457 18 8.13281c5.3291 6.28906 13.6143 18.7441 22.8213 42.3906c2.30469 5.91309 4.55469 12.2568 6.69043 18.8633c19.9756 61.7021 29.5 148.202 26.1338 237.328
c-3.41699 90.458 -27.6348 201.256 -62.252 230.083c-5.86621 4.88477 -9.75293 5.25684 -12.9043 4.92676z" />
    <glyph glyph-name="r" unicode="r" horiz-adv-x="304" 
d="M289.61 523.699c7.11816 -73.7061 -14.0898 -149.661 -52.7676 -189.02c-16.2793 -16.5537 -34.9229 -28.1172 -53.8701 -36.4238c46.2275 -43.3428 91.4824 -121.819 91.2324 -282.989c-0.0341797 -20.999 -17.0703 -38.0059 -38.0654 -38.0059h-0.0644531
c-21.0205 0.0341797 -38.04 17.0996 -38.0059 38.124c0.253906 163.767 -50.5703 218.896 -92.6445 246.726c0.426758 -81.3564 1.33984 -163.339 2.75293 -247.72c0.350586 -21.0156 -16.4023 -38.3389 -37.4229 -38.6943
c-0.21582 -0.00390625 -0.435547 -0.00390625 -0.651367 -0.00390625c-20.7285 0 -37.7012 16.626 -38.0479 37.4307c-3.64551 217.383 -4.01758 418.998 -1.18359 634.494c0.00390625 0.275391 0.0419922 0.541992 0.0507812 0.8125
c-0.706055 16.5156 9.45312 32.1855 25.9102 37.709c34.4863 11.5586 107.926 17.0605 158.175 -17.4043c41.8496 -28.7178 68.3428 -80.2236 74.6025 -145.035zM182.55 388.067c22.6738 23.0586 36.1221 78.2197 31.2793 128.317
c-3.99707 41.3975 -19.2656 74.0488 -41.8926 89.5752c-16.1982 11.1152 -42.9785 14.2324 -65.2881 12.6172c-1.06152 -89.3203 -1.56445 -176.479 -1.50488 -263.575c26.6279 4.41504 57.2998 12.6162 77.4062 33.0654z" />
    <glyph glyph-name="s" unicode="s" horiz-adv-x="288" 
d="M176.021 338.388c44.6113 -50.8545 95.1719 -108.498 103.575 -199.083c2.7832 -29.9268 -2.07227 -62.167 -13.665 -90.7832c-21.7852 -53.7637 -68.334 -86.1104 -118.474 -86.1143c-12.1768 0 -24.5645 1.91211 -36.8633 5.88379
c-37.6035 12.1465 -97.9355 68.5791 -85.543 203.04c1.92871 20.9316 20.5039 36.3516 41.3975 34.4102c20.9316 -1.92871 36.3389 -20.4619 34.4102 -41.3975c-9.37207 -101.751 32.9561 -123.52 33.3877 -123.693c24.4248 -7.8916 49.0908 6.73828 61.1318 36.4668
c7.00391 17.2812 10.0703 37.3877 8.4209 55.1514c-6.12793 65.9912 -42.6826 107.663 -85.0107 155.916c-57.5283 65.5811 -122.729 139.904 -98.6504 279.796c6.21289 36.0811 27.791 85.2012 61.998 113.602c26.9746 22.3906 61.2373 28.4766 91.6426 16.2617
c29.5762 -11.8848 67.0996 -45.792 77.8594 -139.837c2.38965 -20.8887 -12.6074 -39.7598 -33.4922 -42.1455s-39.7559 12.6035 -42.1455 33.4883c-6.2002 54.2422 -22.1533 74.4541 -30.5996 77.8506c-5.99316 2.41113 -12.7178 -2.60059 -14.6338 -4.19531
c-15.6357 -12.9844 -31.2764 -42.8271 -35.5986 -67.9414c-17.9199 -104.081 27.8545 -156.259 80.8525 -216.676z" />
    <glyph glyph-name="t" unicode="t" horiz-adv-x="267" 
d="M232.378 692.308c20.8633 2.2373 39.6602 -12.7656 41.9697 -33.667c2.30469 -20.8975 -12.8115 -39.71 -33.7051 -42.0146c-5.20215 -0.571289 -15.6191 -0.837891 -31.2764 -0.837891c-10.5605 0 -23.5283 0.123047 -38.8721 0.342773
c-2.45312 -207.799 -1.9707 -403.84 1.50586 -614.451c0.350586 -21.0156 -16.4102 -38.3389 -37.4307 -38.6855c-0.211914 -0.00390625 -0.427734 -0.00390625 -0.639648 -0.00390625c-20.7324 0 -37.7051 16.6299 -38.0479 37.4385
c-3.49316 211.524 -3.97559 408.411 -1.50586 617.141c-7.83691 0.165039 -15.957 0.34668 -24.4111 0.533203c-19.2314 0.422852 -35.8447 0.794922 -39.9004 0.794922c-21.0244 0 -38.0645 17.04 -38.0645 38.0645s17.04 38.0645 38.0645 38.0645
c4.68652 0 17.4893 -0.279297 41.5967 -0.816406c43.8125 -0.976562 146.409 -3.26465 160.717 -1.90234z" />
    <glyph glyph-name="u" unicode="u" horiz-adv-x="345" 
d="M322.512 666.56c6.4707 -392.395 -18.9111 -588.424 -84.873 -655.489c-22.2168 -22.585 -45.834 -27.3262 -61.7363 -27.3262c-27.3857 0 -52.6904 11.4658 -73.1777 33.1582c-69.8613 73.9678 -95.1152 289.493 -75.0557 640.592l0.266602 4.66895
c1.18848 20.9902 19.2607 37.0361 40.1582 35.8477c20.9902 -1.18848 37.041 -19.168 35.8486 -40.1582l-0.266602 -4.69922c-26.3154 -460.56 34.9814 -563.423 54.3945 -583.978c7.78613 -8.24316 13.6182 -9.30078 17.8311 -9.30078
c0.731445 0 2.95605 0 7.46484 4.58496c12.5693 12.7812 43.2793 62.8613 56.9355 251.387c8.55566 118.19 7.75195 248.845 6.08984 349.462c-0.342773 21.0156 16.4141 38.3389 37.4346 38.6855c21.041 0.333984 38.335 -16.4102 38.6855 -37.4346z" />
    <glyph glyph-name="u" unicode="&#xfc;" horiz-adv-x="345" 
d="M322.512 666.56c6.4707 -392.395 -18.9111 -588.424 -84.873 -655.489c-22.2168 -22.585 -45.834 -27.3262 -61.7363 -27.3262c-27.3857 0 -52.6904 11.4658 -73.1777 33.1582c-69.8613 73.9678 -95.1152 289.493 -75.0557 640.592l0.266602 4.66895
c1.18848 20.9902 19.2607 37.0361 40.1582 35.8477c20.9902 -1.18848 37.041 -19.168 35.8486 -40.1582l-0.266602 -4.69922c-26.3154 -460.56 34.9814 -563.423 54.3945 -583.978c7.78613 -8.24316 13.6182 -9.30078 17.8311 -9.30078
c0.731445 0 2.95605 0 7.46484 4.58496c12.5693 12.7812 43.2793 62.8613 56.9355 251.387c8.55566 118.19 7.75195 248.845 6.08984 349.462c-0.342773 21.0156 16.4141 38.3389 37.4346 38.6855c21.041 0.333984 38.335 -16.4102 38.6855 -37.4346z" />
    <glyph glyph-name="u" unicode="&#xfb;" horiz-adv-x="345" 
d="M322.512 666.56c6.4707 -392.395 -18.9111 -588.424 -84.873 -655.489c-22.2168 -22.585 -45.834 -27.3262 -61.7363 -27.3262c-27.3857 0 -52.6904 11.4658 -73.1777 33.1582c-69.8613 73.9678 -95.1152 289.493 -75.0557 640.592l0.266602 4.66895
c1.18848 20.9902 19.2607 37.0361 40.1582 35.8477c20.9902 -1.18848 37.041 -19.168 35.8486 -40.1582l-0.266602 -4.69922c-26.3154 -460.56 34.9814 -563.423 54.3945 -583.978c7.78613 -8.24316 13.6182 -9.30078 17.8311 -9.30078
c0.731445 0 2.95605 0 7.46484 4.58496c12.5693 12.7812 43.2793 62.8613 56.9355 251.387c8.55566 118.19 7.75195 248.845 6.08984 349.462c-0.342773 21.0156 16.4141 38.3389 37.4346 38.6855c21.041 0.333984 38.335 -16.4102 38.6855 -37.4346z" />
    <glyph glyph-name="u" unicode="&#xfa;" horiz-adv-x="345" 
d="M322.512 666.56c6.4707 -392.395 -18.9111 -588.424 -84.873 -655.489c-22.2168 -22.585 -45.834 -27.3262 -61.7363 -27.3262c-27.3857 0 -52.6904 11.4658 -73.1777 33.1582c-69.8613 73.9678 -95.1152 289.493 -75.0557 640.592l0.266602 4.66895
c1.18848 20.9902 19.2607 37.0361 40.1582 35.8477c20.9902 -1.18848 37.041 -19.168 35.8486 -40.1582l-0.266602 -4.69922c-26.3154 -460.56 34.9814 -563.423 54.3945 -583.978c7.78613 -8.24316 13.6182 -9.30078 17.8311 -9.30078
c0.731445 0 2.95605 0 7.46484 4.58496c12.5693 12.7812 43.2793 62.8613 56.9355 251.387c8.55566 118.19 7.75195 248.845 6.08984 349.462c-0.342773 21.0156 16.4141 38.3389 37.4346 38.6855c21.041 0.333984 38.335 -16.4102 38.6855 -37.4346z" />
    <glyph glyph-name="v" unicode="v" horiz-adv-x="341" 
d="M306.287 698.348c20.7666 -3.26465 34.9561 -22.751 31.6914 -43.5176c-34.5244 -219.48 -129.58 -662.949 -130.536 -667.402c-3.76855 -17.5479 -19.2773 -30.0752 -37.2139 -30.0752h-0.135742c-17.9922 0.0634766 -33.4844 12.7178 -37.1387 30.3379
c-1.01074 4.86816 -101.354 489.197 -130.465 670.004c-3.34082 20.7539 10.7773 40.2891 31.5312 43.6299c20.7666 3.3623 40.2891 -10.7812 43.6299 -31.5303c17.4932 -108.653 61.1621 -328.958 93.043 -486.592c30.6035 148.511 71.8779 355.058 92.0771 483.458
c3.26953 20.7666 22.7881 34.9141 43.5166 31.6875z" />
    <glyph glyph-name="w" unicode="w" horiz-adv-x="496" 
d="M456.088 701.516c20.8633 -2.60938 35.6562 -21.6367 33.0381 -42.5049c-27.0127 -215.89 -101.421 -665.313 -102.17 -669.826c-2.91016 -17.5479 -17.5781 -30.7393 -35.333 -31.7754c-0.744141 -0.046875 -1.49316 -0.0683594 -2.2373 -0.0683594
c-16.8584 0 -31.8301 11.1445 -36.5547 27.5078c-2.09766 7.26562 -34.8672 121.277 -63.957 249.652c-30.3379 -136.631 -64.5068 -244.142 -66.6045 -250.693c-5.0625 -15.8223 -19.7686 -26.4639 -36.2383 -26.4639c-0.638672 0 -1.28125 0.0166016 -1.92383 0.0507812
c-17.2393 0.863281 -31.7373 13.2256 -35.3242 30.1094c-11.4023 53.6875 -82.5107 486.304 -102.537 661.811c-2.38574 20.8887 12.6162 39.752 33.501 42.1377c20.9141 2.33496 39.752 -12.6201 42.1328 -33.5049c12.9463 -113.445 47.3613 -334.981 72.8438 -489.976
c20.5967 81.8428 43.127 184.663 55.4727 283.313c0.0341797 0.241211 0.09375 0.469727 0.12793 0.710938c0.114258 0.799805 0.257812 1.59473 0.422852 2.38184c0.101562 0.473633 0.203125 0.947266 0.321289 1.41211
c0.181641 0.727539 0.384766 1.44238 0.609375 2.14844c0.165039 0.520508 0.330078 1.03613 0.516602 1.54785c0.228516 0.625977 0.473633 1.23926 0.731445 1.85254c0.232422 0.553711 0.473633 1.10742 0.731445 1.64453
c0.266602 0.553711 0.549805 1.09473 0.841797 1.63184c0.295898 0.545898 0.595703 1.0918 0.916992 1.62012c0.317383 0.52832 0.655273 1.03613 0.998047 1.54785c0.333984 0.490234 0.667969 0.980469 1.01855 1.4541
c0.397461 0.541016 0.820312 1.06152 1.25195 1.58203c0.330078 0.397461 0.660156 0.794922 1.00684 1.17969c0.507812 0.566406 1.04102 1.10742 1.58203 1.64453c0.300781 0.295898 0.600586 0.59668 0.913086 0.883789
c0.617188 0.575195 1.26465 1.11621 1.9248 1.64941c0.270508 0.21582 0.541016 0.44043 0.816406 0.652344c0.710938 0.541016 1.44727 1.04883 2.19629 1.53906c0.266602 0.173828 0.529297 0.351562 0.799805 0.520508
c0.75293 0.469727 1.52734 0.905273 2.31445 1.31934c0.317383 0.165039 0.629883 0.333984 0.947266 0.490234c0.740234 0.363281 1.48926 0.693359 2.25488 1.01074c0.422852 0.173828 0.841797 0.342773 1.26855 0.503906
c0.672852 0.25 1.35352 0.478516 2.04688 0.69043c0.558594 0.173828 1.11719 0.334961 1.68359 0.483398c0.59668 0.152344 1.19336 0.288086 1.80273 0.415039c0.680664 0.139648 1.36133 0.266602 2.05078 0.368164
c0.287109 0.0419922 0.5625 0.114258 0.849609 0.152344s0.570312 0.0380859 0.858398 0.0673828c0.664062 0.0673828 1.33203 0.12207 2.00488 0.15625c0.680664 0.0380859 1.35742 0.0546875 2.03027 0.0546875c0.52832 0 1.05664 -0.0126953 1.58496 -0.0341797
c0.816406 -0.0341797 1.62402 -0.0888672 2.42773 -0.177734c0.219727 -0.0214844 0.435547 -0.0214844 0.655273 -0.046875c0.21582 -0.0253906 0.422852 -0.0849609 0.638672 -0.114258c0.854492 -0.118164 1.7002 -0.270508 2.53809 -0.448242
c0.422852 -0.0888672 0.836914 -0.181641 1.25098 -0.283203c0.77832 -0.19043 1.54395 -0.410156 2.30566 -0.651367c0.473633 -0.148438 0.947266 -0.300781 1.41211 -0.469727c0.664062 -0.241211 1.31152 -0.499023 1.9541 -0.774414
c0.533203 -0.228516 1.05762 -0.453125 1.57812 -0.703125c0.558594 -0.270508 1.1084 -0.558594 1.6543 -0.854492c0.553711 -0.300781 1.10352 -0.600586 1.63672 -0.925781c0.499023 -0.304688 0.981445 -0.625977 1.46777 -0.951172
c0.533203 -0.359375 1.06152 -0.71875 1.57324 -1.09961c0.473633 -0.355469 0.93457 -0.727539 1.3916 -1.10352c0.473633 -0.393555 0.947266 -0.782227 1.39941 -1.19238c0.473633 -0.426758 0.925781 -0.875 1.37793 -1.32715
c0.393555 -0.397461 0.791016 -0.791016 1.16699 -1.20508c0.469727 -0.511719 0.90918 -1.04004 1.34863 -1.57324c0.325195 -0.397461 0.650391 -0.791016 0.958984 -1.20117c0.435547 -0.575195 0.845703 -1.16699 1.24707 -1.77148
c0.275391 -0.410156 0.550781 -0.824219 0.813477 -1.24707c0.37207 -0.609375 0.71875 -1.23145 1.05664 -1.86133c0.25 -0.464844 0.5 -0.929688 0.732422 -1.40723c0.287109 -0.59668 0.557617 -1.20605 0.81543 -1.82324
c0.237305 -0.553711 0.46582 -1.1123 0.672852 -1.68359c0.203125 -0.549805 0.389648 -1.1123 0.567383 -1.67871c0.211914 -0.667969 0.40625 -1.34082 0.580078 -2.02148c0.126953 -0.50293 0.241211 -1.01074 0.351562 -1.52246
c0.15625 -0.75293 0.291992 -1.50586 0.40625 -2.27148c0.0380859 -0.257812 0.101562 -0.50293 0.135742 -0.765625c10.5859 -82.6934 33.5215 -186.593 54.7871 -273.24c24.0732 150.465 57.0332 362.121 73.0713 490.302c2.60547 20.8555 21.625 35.5947 42.4932 33.0439
z" />
    <glyph glyph-name="x" unicode="x" horiz-adv-x="306" 
d="M112.841 315.372c-36.9688 111.317 -76.1689 233.513 -106.324 337.793c-5.84082 20.1953 5.79395 41.2998 25.9893 47.1406c20.1914 5.83691 41.3008 -5.79785 47.1416 -25.9893c21.2354 -73.4141 47.0088 -155.845 73.3154 -237.058
c26.3066 81.2168 52.085 163.652 73.3164 237.058c5.84082 20.1953 26.958 31.8223 47.1406 25.9902c20.1953 -5.83691 31.8301 -26.9463 25.9893 -47.1416c-30.1641 -104.284 -69.3623 -226.479 -106.331 -337.797c55.9551 -167.603 104.796 -304.859 105.621 -307.173
c7.05469 -19.8066 -3.27734 -41.5791 -23.0791 -48.6338c-4.2207 -1.50586 -8.53516 -2.2207 -12.7773 -2.2207c-15.6445 0 -30.3037 9.71484 -35.8564 25.2959c-0.667969 1.86523 -32.418 91.1055 -74.0264 213.424c-41.6084 -122.318 -73.3623 -211.555 -74.0264 -213.424
c-5.55273 -15.5723 -20.2158 -25.2959 -35.8564 -25.2959c-4.24219 0 -8.55176 0.714844 -12.7773 2.2207c-19.8066 7.05469 -30.1387 28.8271 -23.0801 48.6338c0.825195 2.31348 49.666 139.578 105.621 307.177z" />
    <glyph glyph-name="y" unicode="y" horiz-adv-x="318" 
d="M286.016 665.316c0.0126953 -0.308594 0.0585938 -0.613281 0.0546875 -0.938477c3.26074 -189.756 5.61621 -326.86 5.61621 -475.964c0 -140.204 -66.2539 -208.115 -131.915 -213.22c-2.66895 -0.207031 -5.35449 -0.308594 -8.05273 -0.308594
c-56.6953 0 -118.593 46.1426 -135.252 152.647c-3.25195 20.7705 10.9551 40.2383 31.7256 43.4863c20.749 3.25195 40.2422 -10.9551 43.4902 -31.7256c9.44043 -60.3447 38.4072 -89.9805 62.1934 -88.2002c24.7969 1.9248 61.6855 40.0908 61.6855 137.32
c0 45.1279 -0.219727 89.1855 -0.613281 133.967c-19.9121 -24.0859 -44.1172 -36.2451 -72.5088 -36.2451c-24.5137 0 -46.8789 10.1504 -64.6758 29.3564c-73.1562 78.9463 -57.2109 317.937 -55.1514 344.929c1.59863 20.9609 19.8447 36.7109 40.8525 35.0576
c20.9648 -1.59863 36.6602 -19.8867 35.0615 -40.8477c-7.09668 -92.9746 -0.849609 -248.616 35.0791 -287.392c4.60547 -4.97363 7.24902 -4.97363 8.83105 -4.97363c5.83203 0 57.2529 8.49707 67.5342 302.791
c0.0126953 0.321289 0.0634766 0.629883 0.0800781 0.947266c0.0380859 0.664062 0.0976562 1.32812 0.169922 1.98828c0.0673828 0.613281 0.147461 1.21777 0.245117 1.82227c0.105469 0.655273 0.228516 1.30664 0.368164 1.9541
c0.130859 0.59668 0.266602 1.18066 0.422852 1.76465c0.165039 0.625977 0.351562 1.23926 0.545898 1.85254c0.19043 0.587891 0.384766 1.16309 0.600586 1.73438c0.219727 0.587891 0.457031 1.16309 0.707031 1.73828
c0.241211 0.5625 0.495117 1.11621 0.765625 1.66211c0.275391 0.558594 0.567383 1.1084 0.87207 1.6543c0.288086 0.524414 0.587891 1.03613 0.900391 1.54395c0.337891 0.545898 0.688477 1.0791 1.05176 1.60742c0.325195 0.464844 0.650391 0.925781 0.993164 1.37402
c0.410156 0.541016 0.836914 1.06152 1.27246 1.58203c0.333984 0.393555 0.676758 0.787109 1.02734 1.16797c0.490234 0.537109 0.998047 1.05273 1.51855 1.56055c0.337891 0.325195 0.671875 0.646484 1.01855 0.958984
c0.579102 0.524414 1.17578 1.02344 1.78516 1.50977c0.325195 0.262695 0.650391 0.516602 0.984375 0.766602c0.664062 0.495117 1.34082 0.959961 2.03418 1.41211c0.317383 0.207031 0.634766 0.410156 0.959961 0.609375
c0.727539 0.444336 1.47168 0.858398 2.2334 1.25195c0.325195 0.168945 0.650391 0.333984 0.980469 0.495117c0.774414 0.37207 1.56152 0.71875 2.36523 1.04004c0.350586 0.143555 0.701172 0.279297 1.05664 0.410156
c0.791016 0.291992 1.59473 0.554688 2.41113 0.791992c0.401367 0.118164 0.802734 0.232422 1.20898 0.333984c0.782227 0.203125 1.57324 0.376953 2.37305 0.529297c0.464844 0.0888672 0.938477 0.168945 1.41211 0.241211
c0.756836 0.114258 1.51367 0.203125 2.2832 0.270508c0.541016 0.046875 1.08691 0.0849609 1.63672 0.110352c0.368164 0.0166016 0.727539 0.0712891 1.0957 0.0751953c0.224609 0.00390625 0.449219 0.00390625 0.668945 0.00390625
c0.237305 0 0.469727 -0.0292969 0.707031 -0.0332031c0.203125 -0.00390625 0.402344 0.0126953 0.609375 0.00878906c0.393555 -0.0126953 0.765625 -0.0722656 1.1543 -0.0976562c0.706055 -0.0419922 1.41211 -0.0927734 2.11035 -0.177734
c0.571289 -0.0722656 1.13379 -0.165039 1.69629 -0.257812c0.685547 -0.114258 1.36621 -0.232422 2.03906 -0.384766c0.571289 -0.126953 1.12988 -0.275391 1.68848 -0.427734c0.634766 -0.173828 1.26953 -0.351562 1.8916 -0.558594
c0.571289 -0.19043 1.13379 -0.397461 1.69238 -0.613281c0.583984 -0.224609 1.16797 -0.453125 1.73926 -0.707031c0.558594 -0.25 1.1123 -0.516602 1.6582 -0.791992c0.545898 -0.270508 1.08301 -0.549805 1.61133 -0.845703
c0.537109 -0.304688 1.06543 -0.625977 1.58594 -0.951172c0.507812 -0.317383 1.01074 -0.642578 1.50098 -0.985352c0.507812 -0.350586 0.998047 -0.71875 1.48438 -1.09082c0.477539 -0.368164 0.947266 -0.744141 1.4082 -1.13281
c0.460938 -0.393555 0.90918 -0.794922 1.34863 -1.20508c0.448242 -0.418945 0.887695 -0.850586 1.31934 -1.29004c0.410156 -0.418945 0.807617 -0.850586 1.19629 -1.29004c0.418945 -0.469727 0.825195 -0.947266 1.22266 -1.44238
c0.359375 -0.448242 0.709961 -0.905273 1.04785 -1.37012c0.375977 -0.520508 0.744141 -1.04102 1.09473 -1.57812c0.317383 -0.482422 0.617188 -0.96875 0.913086 -1.46387c0.325195 -0.549805 0.637695 -1.1084 0.9375 -1.6748
c0.275391 -0.515625 0.533203 -1.04004 0.783203 -1.56836c0.266602 -0.575195 0.520508 -1.15039 0.761719 -1.73828c0.232422 -0.558594 0.448242 -1.125 0.651367 -1.7002c0.207031 -0.579102 0.397461 -1.16309 0.575195 -1.75488
c0.181641 -0.609375 0.350586 -1.22266 0.50293 -1.84473c0.143555 -0.583984 0.274414 -1.16797 0.388672 -1.75977c0.130859 -0.651367 0.241211 -1.30664 0.333984 -1.9707c0.0800781 -0.587891 0.152344 -1.17969 0.207031 -1.78027
c0.0634766 -0.672852 0.105469 -1.3457 0.134766 -2.02637z" />
    <glyph glyph-name="y" unicode="&#xff;" horiz-adv-x="318" 
d="M286.016 665.316c0.0126953 -0.308594 0.0585938 -0.613281 0.0546875 -0.938477c3.26074 -189.756 5.61621 -326.86 5.61621 -475.964c0 -140.204 -66.2539 -208.115 -131.915 -213.22c-2.66895 -0.207031 -5.35449 -0.308594 -8.05273 -0.308594
c-56.6953 0 -118.593 46.1426 -135.252 152.647c-3.25195 20.7705 10.9551 40.2383 31.7256 43.4863c20.749 3.25195 40.2422 -10.9551 43.4902 -31.7256c9.44043 -60.3447 38.4072 -89.9805 62.1934 -88.2002c24.7969 1.9248 61.6855 40.0908 61.6855 137.32
c0 45.1279 -0.219727 89.1855 -0.613281 133.967c-19.9121 -24.0859 -44.1172 -36.2451 -72.5088 -36.2451c-24.5137 0 -46.8789 10.1504 -64.6758 29.3564c-73.1562 78.9463 -57.2109 317.937 -55.1514 344.929c1.59863 20.9609 19.8447 36.7109 40.8525 35.0576
c20.9648 -1.59863 36.6602 -19.8867 35.0615 -40.8477c-7.09668 -92.9746 -0.849609 -248.616 35.0791 -287.392c4.60547 -4.97363 7.24902 -4.97363 8.83105 -4.97363c5.83203 0 57.2529 8.49707 67.5342 302.791
c0.0126953 0.321289 0.0634766 0.629883 0.0800781 0.947266c0.0380859 0.664062 0.0976562 1.32812 0.169922 1.98828c0.0673828 0.613281 0.147461 1.21777 0.245117 1.82227c0.105469 0.655273 0.228516 1.30664 0.368164 1.9541
c0.130859 0.59668 0.266602 1.18066 0.422852 1.76465c0.165039 0.625977 0.351562 1.23926 0.545898 1.85254c0.19043 0.587891 0.384766 1.16309 0.600586 1.73438c0.219727 0.587891 0.457031 1.16309 0.707031 1.73828
c0.241211 0.5625 0.495117 1.11621 0.765625 1.66211c0.275391 0.558594 0.567383 1.1084 0.87207 1.6543c0.288086 0.524414 0.587891 1.03613 0.900391 1.54395c0.337891 0.545898 0.688477 1.0791 1.05176 1.60742c0.325195 0.464844 0.650391 0.925781 0.993164 1.37402
c0.410156 0.541016 0.836914 1.06152 1.27246 1.58203c0.333984 0.393555 0.676758 0.787109 1.02734 1.16797c0.490234 0.537109 0.998047 1.05273 1.51855 1.56055c0.337891 0.325195 0.671875 0.646484 1.01855 0.958984
c0.579102 0.524414 1.17578 1.02344 1.78516 1.50977c0.325195 0.262695 0.650391 0.516602 0.984375 0.766602c0.664062 0.495117 1.34082 0.959961 2.03418 1.41211c0.317383 0.207031 0.634766 0.410156 0.959961 0.609375
c0.727539 0.444336 1.47168 0.858398 2.2334 1.25195c0.325195 0.168945 0.650391 0.333984 0.980469 0.495117c0.774414 0.37207 1.56152 0.71875 2.36523 1.04004c0.350586 0.143555 0.701172 0.279297 1.05664 0.410156
c0.791016 0.291992 1.59473 0.554688 2.41113 0.791992c0.401367 0.118164 0.802734 0.232422 1.20898 0.333984c0.782227 0.203125 1.57324 0.376953 2.37305 0.529297c0.464844 0.0888672 0.938477 0.168945 1.41211 0.241211
c0.756836 0.114258 1.51367 0.203125 2.2832 0.270508c0.541016 0.046875 1.08691 0.0849609 1.63672 0.110352c0.368164 0.0166016 0.727539 0.0712891 1.0957 0.0751953c0.224609 0.00390625 0.449219 0.00390625 0.668945 0.00390625
c0.237305 0 0.469727 -0.0292969 0.707031 -0.0332031c0.203125 -0.00390625 0.402344 0.0126953 0.609375 0.00878906c0.393555 -0.0126953 0.765625 -0.0722656 1.1543 -0.0976562c0.706055 -0.0419922 1.41211 -0.0927734 2.11035 -0.177734
c0.571289 -0.0722656 1.13379 -0.165039 1.69629 -0.257812c0.685547 -0.114258 1.36621 -0.232422 2.03906 -0.384766c0.571289 -0.126953 1.12988 -0.275391 1.68848 -0.427734c0.634766 -0.173828 1.26953 -0.351562 1.8916 -0.558594
c0.571289 -0.19043 1.13379 -0.397461 1.69238 -0.613281c0.583984 -0.224609 1.16797 -0.453125 1.73926 -0.707031c0.558594 -0.25 1.1123 -0.516602 1.6582 -0.791992c0.545898 -0.270508 1.08301 -0.549805 1.61133 -0.845703
c0.537109 -0.304688 1.06543 -0.625977 1.58594 -0.951172c0.507812 -0.317383 1.01074 -0.642578 1.50098 -0.985352c0.507812 -0.350586 0.998047 -0.71875 1.48438 -1.09082c0.477539 -0.368164 0.947266 -0.744141 1.4082 -1.13281
c0.460938 -0.393555 0.90918 -0.794922 1.34863 -1.20508c0.448242 -0.418945 0.887695 -0.850586 1.31934 -1.29004c0.410156 -0.418945 0.807617 -0.850586 1.19629 -1.29004c0.418945 -0.469727 0.825195 -0.947266 1.22266 -1.44238
c0.359375 -0.448242 0.709961 -0.905273 1.04785 -1.37012c0.375977 -0.520508 0.744141 -1.04102 1.09473 -1.57812c0.317383 -0.482422 0.617188 -0.96875 0.913086 -1.46387c0.325195 -0.549805 0.637695 -1.1084 0.9375 -1.6748
c0.275391 -0.515625 0.533203 -1.04004 0.783203 -1.56836c0.266602 -0.575195 0.520508 -1.15039 0.761719 -1.73828c0.232422 -0.558594 0.448242 -1.125 0.651367 -1.7002c0.207031 -0.579102 0.397461 -1.16309 0.575195 -1.75488
c0.181641 -0.609375 0.350586 -1.22266 0.50293 -1.84473c0.143555 -0.583984 0.274414 -1.16797 0.388672 -1.75977c0.130859 -0.651367 0.241211 -1.30664 0.333984 -1.9707c0.0800781 -0.587891 0.152344 -1.17969 0.207031 -1.78027
c0.0634766 -0.672852 0.105469 -1.3457 0.134766 -2.02637z" />
    </font>
</defs>
</svg>
